Скачать через торрент Большая рыба и Бегония Da Yu Hai Tang бесплатно Аниме Все серии на русском torrent

Если у вас наблюдаются проблемы со скриншотами, переходом по ссылками, скачиванием торрентов - проблемы в блокировщике рекламы AdBlock. #хорошегоДня!


Статистика раздачи
Размер:  2.23 GB   |    Зарегистрирован:  6 месяцев   |    .torrent скачан:  23 раза   |   
Раздают:  1  
   
Загрузка...
 
Автор Сообщение

Galfimbul

avatar Galfimbul


Большая рыба и Бегония / Da Yu Hai Tang / Big Fish & Begonia
Страна: Китай
Год выпуска: 2016
Жанр: фэнтези, драма
Тип: Movie
Продолжительность: 100 мин.
Режиссеры: Чжан Чунь, Лян Сюань
Студия: B&T, Enlight Pictures Limited
Перевод: SeshaRim, Helge, Aero
Озвучание: двухголосое (муж./жен.) от Soer, MezIdA [DeadLine Studio]
Работа со звуком: Soer [DeadLine Studio]
Описание:
Ни один чужак не смел ступать на ту мифическую землю, однако духи, испокон веков обитавшие на ней, прекрасно знают нас, смертных. В их ведении - человеческие эмоции и желания, смена времен года и тайны прошлого.
Девушка-дух по имени Чун, достигнув 16-летия, превращается в дельфина, чтобы увидеть полный неведомого человеческий мир. Но во время своего путешествия она попадает в ужасный шторм и становится добычей рыбаков. Однако на этом несчастья Чун не заканчиваются: парень, который бросается к ней на помощь, тонет у нее на глазах.
Это картина о жертвенности и искуплении Чун, которая решает воскресить душу умершего по ее вине мальчика, пускай и в форме маленькой белой рыбки. "Да Хай" рассказывает печальную историю юной девушки, которая познает себя и свои возможности, учится управлять ими, пытается найти ответы на вековые вопросы, взрослеет и сталкивается с тем, о чем раньше никогда не задумывалась: смертью, любовью, сопереживанием и ответственностью.
Качество: WEBRip | Формат: .mkv | Рип: Неизвестен
Видео: x264(8 bit.), 1280x536, 2800 Kbps, 25.000 fps
Звук (Rus(int)): аас, 171 kbps, 48.0 KHz, 2.0 ch | [2VO]
Звук (Chinese): аас, 192 kbps, 44.1 KHz, 2.0 ch | Original
Субтитры (Russian): ass, встроенные | Надписи
Субтитры (Russian): ass, встроенные | Субтитры
Хардсаб: Chinese
General
Unique ID : 183691376226312717131193346780181570968 (0x8A31AC154C8604BF9557F0DB7D7C2598)
Complete name : D:\[DLS] Da Yu Hai Tang [Soer & MezIdA]\[DeadLine] Da Yu Hai Tang [Soer & MezIdA] [720p WEBRip].mkv
Format : Matroska
Format version : Version 4 / Version 2
File size : 2.23 GiB
Duration : 1h 40mn
Overall bit rate : 3 172 Kbps
Encoded date : UTC 2017-03-11 15:06:53
Writing application : mkvmerge v7.6.0 ('Garden of Dreams') 64bit built on Feb 8 2015 13:04:34
Writing library : libebml v1.3.1 + libmatroska v1.4.2
Attachments : ds_UnFunH.ttf / DS BroadBrush Regular.ttf

Video
ID : 1
Format : AVC
Format/Info : Advanced Video Codec
Format profile : High@L4.1
Format settings, CABAC : Yes
Format settings, ReFrames : 5 frames
Codec ID : V_MPEG4/ISO/AVC
Duration : 1h 40mn
Bit rate : 2 800 Kbps
Width : 1 280 pixels
Height : 536 pixels
Display aspect ratio : 2.40:1
Frame rate mode : Constant
Frame rate : 25.000 fps
Color space : YUV
Chroma subsampling : 4:2:0
Bit depth : 8 bits
Scan type : Progressive
Bits/(Pixel*Frame) : 0.163
Stream size : 1.97 GiB (89%)
Writing library : x264 core 142 r2431+42 c69a006 tMod [8-bit@all X86_64]
Encoding settings : cabac=1 / ref=5 / deblock=1:-2:-2 / analyse=0x3:0x133 / me=umh / subme=7 / psy=1 / fade_compensate=0.00 / psy_rd=1.10:0.00 / mixed_ref=1 / me_range=16 / chroma_me=1 / trellis=1 / 8x8dct=1 / cqm=0 / deadzone=21,11 / fast_pskip=0 / chroma_qp_offset=-2 / threads=24 / lookahead_threads=4 / sliced_threads=0 / nr=0 / decimate=0 / interlaced=0 / bluray_compat=0 / constrained_intra=0 / fgo=0 / bframes=3 / b_pyramid=2 / b_adapt=2 / b_bias=0 / direct=3 / weightb=1 / open_gop=0 / weightp=2 / keyint=240 / keyint_min=24 / scenecut=40 / intra_refresh=0 / rc_lookahead=120 / rc=abr / mbtree=1 / bitrate=2800 / ratetol=1.0 / qcomp=0.70 / qpmin=0:0:0 / qpmax=69:69:69 / qpstep=4 / ip_ratio=1.10 / aq=1:0.90 / aq-sensitivity=10.00 / aq-factor=1.00:1.00:1.00 / aq2=0 / aq3=0
Default : Yes
Forced : No

Audio #1
ID : 2
Format : AAC
Format/Info : Advanced Audio Codec
Format profile : LC
Codec ID : A_AAC
Duration : 1h 40mn
Bit rate : 171 Kbps
Channel(s) : 2 channels
Channel positions : Front: L R
Sampling rate : 48.0 KHz
Frame rate : 46.875 fps (1024 spf)
Compression mode : Lossy
Delay relative to video : 20ms
Stream size : 123 MiB (5%)
Title : [Soer & MezIdA] [Deadline Studio]
Language : Russian
Default : Yes
Forced : Yes

Audio #2
ID : 3
Format : AAC
Format/Info : Advanced Audio Codec
Format profile : LC
Codec ID : A_AAC
Duration : 1h 40mn
Bit rate : 192 Kbps
Channel(s) : 2 channels
Channel positions : Front: L R
Sampling rate : 44.1 KHz
Frame rate : 43.066 fps (1024 spf)
Compression mode : Lossy
Stream size : 136 MiB (6%)
Title : Original
Language : Chinese
Default : No
Forced : No

Text #1
ID : 4
Format : ASS
Codec ID : S_TEXT/ASS
Codec ID/Info : Advanced Sub Station Alpha
Duration : 1h 33mn
Bit rate : 1 bps
Count of elements : 4
Compression mode : Lossless
Stream size : 944 Bytes (0%)
Title : Надписи
Language : Russian
Default : Yes
Forced : Yes

Text #2
ID : 5
Format : ASS
Codec ID : S_TEXT/ASS
Codec ID/Info : Advanced Sub Station Alpha
Duration : 1h 33mn
Bit rate : 79 bps
Count of elements : 902
Compression mode : Lossless
Stream size : 54.5 KiB (0%)
Title : Полные субтитры
Language : Russian
Default : No
Forced : No


Трекер:  [ 11-Мар-2017 17:30 ]

  

Скачать .torrent

Размер .torrent файла 11 KB


Размер: 2.23 GB
Хэш (hash) релиза: 07506eda77b888b5655f127a8e2df76eb6c32970
Подписка на обновления:

Торренты, похожие на Большая рыба и Бегония Da Yu Hai Tang скачать торрент

Форум Название Автор Размер S L Добавлен
Аниме | Rips ·· Большая рыба и Бегония / Da Yu Hai Tang / Big Fish & Begonia [Movie] [Хардсаб] [RUS(ext), CHI+SUB] [2016, Фэнтези, драма, WEBRip] [720p] Galfimbul 24077572072.24 GB 0 0 1489075410

19:03

9-Мар-17

Еще никто не оставлял запись к записи скачать торрент Большая рыба и Бегония Da Yu Hai Tang . Будь первым!

!Обратная связь