Скачать порно через торрент Stud Service Молодые жеребцы UnionPeer.org бесплатно онлайн HD качество

Скачать новое порно 2015, 2014 новинки через торрент UnionPeer.org

Порно торрент бесплатно ЮнионПир.орг

Если у вас наблюдаются проблемы со скриншотами, переходом по ссылками, скачиванием торрентов - проблемы в блокировщике рекламы AdBlock. #хорошегоДня!


Статистика раздачи
Размер:  1.39 GB   |    Зарегистрирован:  5 месяцев 12 дней   |    .torrent скачан:  39 раз   |   
Раздают:  1  
   
Загрузка...
 
Автор Сообщение

Galfimbul

avatar Galfimbul


Stud Service / Молодые жеребцы



Год производства: 2007 г.
Страна: Brazil
Жанр: Bareback, Latino, Cowboy, Oral, Anal, Masturbation, Cumshot
Продолжительность: 01:34:14

Режиссер: Ramon Van Gogh
Студия: Colossal Entertainment, Thrust Men

В ролях: Anthony Gimenez
Arcanjo (Amaro)
Felipe Ferrari
Gabriel Learth
Gabriel Lemos
Johnny (Thiago Delux)
Mauricio Ferrari
Poax Lenehan

Описание: These horny studs will do anything for a buck. They suck dick, give it and take it in the ass!

Доп. информация: http://www.gayeroticvideoindex.com/V/6/34686.html

Качество видео: DVDRip
Формат видео: WMV
Видео: VC-1, WMV3, 720x480 (3:2), 29.970 fps, 2 000 Kbps (0.193 bit/pixel)
Аудио: WMA, 48.0 KHz, 2 ch, 96.0 Kbps, CBR (English (US))
Format : Windows Media
File size : 1.39 GiB
Duration : 1h 34mn
Overall bit rate mode : Constant
Overall bit rate : 2 106 Kbps
Maximum Overall bit rate : 2 116 Kbps
Encoded date : UTC 2008-08-27 06:20:18.786
Video
ID : 2
Format : VC-1
Format profile : MP@ML
Codec ID : WMV3
Codec ID/Info : Windows Media Video 9
Codec ID/Hint : WMV3
Description of the codec : Windows Media Video 9
Duration : 1h 34mn
Bit rate mode : Constant
Bit rate : 2 000 Kbps
Width : 720 pixels
Height : 480 pixels
Display aspect ratio : 3:2
Frame rate : 29.970 fps
Standard : NTSC
Bit depth : 8 bits
Scan type : Progressive
Compression mode : Lossy
Bits/(Pixel*Frame) : 0.193
Stream size : 1.32 GiB (95%)
Language : English (US)
Audio
ID : 1
Format : WMA
Format version : Version 2
Codec ID : 161
Codec ID/Info : Windows Media Audio
Description of the codec : Windows Media Audio 9 - 64 kbps, 48 kHz, stereo (A/V) 1-pass CBR
Duration : 1h 34mn
Bit rate mode : Constant
Bit rate : 96.0 Kbps
Channel(s) : 2 channels
Sampling rate : 48.0 KHz
Bit depth : 16 bits
Stream size : 64.7 MiB (5%)
Language : English (US)


Трекер:  [ 11-Мар-2017 15:30 ]

  

Скачать .torrent

Размер .torrent файла 56 KB


Размер: 1.39 GB
Хэш (hash) релиза: c7ec3a4bb8da03935ff661d92075b3564067c916

Еще никто не оставлял запись к записи скачать торрент Stud Service Молодые жеребцы . Будь первым!

!Обратная связь