Скачать порно через торрент Superboys Супербои UnionPeer.org бесплатно онлайн HD качество

Скачать новое порно 2015, 2014 новинки через торрент UnionPeer.org

Порно торрент бесплатно ЮнионПир.орг

Если у вас наблюдаются проблемы со скриншотами, переходом по ссылками, скачиванием торрентов - проблемы в блокировщике рекламы AdBlock. #хорошегоДня!


Статистика раздачи
Размер:  660 MB   |    Зарегистрирован:  5 месяцев 6 дней   |    .torrent скачан:  47 раз   |   
Раздают:  1  
   
Загрузка...
 
Автор Сообщение

Galfimbul

avatar Galfimbul


Superboys / Супербои

Год производства: 2005 г.
Страна: Brazil
Жанр: all sex
Продолжительность: 01:24:21

Режиссер: Cristian Ferrero
Студия: Icaro

В ролях: Andrey (Andrade)
Ariel (br1)
Dami Hoffman
Jhonatha Raiwa
Leo (Sebastian)
Marcelo Veloso
Mendes (br1)
Punk (br)
Renato Furacão
A Claudio Angel

Описание: 1. The Waiting Game: Unrestful Lust
Claudio Angel At, Jonathan Kawa Ab
On a gray couch, against a yellow wall with yellow drapes, Jhonatan Kawa (brown, bearded) sucks Claudio Angel (pale, spiky hair); Claudio tops Jhonatan on the couch and on a rug of brown squares on a white background.
see also I Want Your Body

2. Dami Hoffman OgAb, Marcelo Veloso OrAt
Against a blue and white wall with spray paint graffiti, over a concrete block and an old tire, Dami Hoffman (pale, brunet, no tattoos) sucks and bottoms for, by elimination, Marcelo Veloso (tan lines, shaved head, tattoo on upper left arm).

3. Mendes (br1) Or, Ariel (br1) OgAbt, Renato Furacão Abt
In prison, on a purple pad on a low bedframe, Ariel (blond curls) sucks Mendes (stocky prison guard); Mendes tops Renato Furacao (young, brown, head shaved) as Renato tops Ariel; Renato tops Mendes.

4. Leo (Sebastian) OrAt, Andrey (Andrade) OgAb
On a small red couch against white curtains, Andrei (Andrade) (long brown hair, left eyebrow piercing) sucks Leo (Sebastian) (gray baseball cap); Leo tops Andrei.
found in compilation One Night in Rio

Format : AVI
Format/Info : Audio Video Interleave
File size : 660 MiB
Duration : 1h 24mn
Overall bit rate : 1 093 Kbps
Writing application : VirtualDubMod 1.5.10.1 (build 2366/release)
Writing library : VirtualDubMod build 2366/release

Video
ID : 0
Format : MPEG-4 Visual
Format profile : Advanced Simple@L5
Format settings, BVOP : 2
Format settings, QPel : No
Format settings, GMC : 3 warppoints
Format settings, Matrix : Default (H.263)
Codec ID : XVID
Codec ID/Hint : XviD
Duration : 1h 24mn
Bit rate : 1 017 Kbps
Width : 512 pixels
Height : 384 pixels
Display aspect ratio : 4:3
Frame rate : 29.970 fps
Color space : YUV
Chroma subsampling : 4:2:0
Bit depth : 8 bits
Scan type : Progressive
Compression mode : Lossy
Bits/(Pixel*Frame) : 0.173
Stream size : 614 MiB (93%)
Writing library : XviD 1.1.0 Beta2 (UTC 2005-04-04)

Audio
ID : 1
Format : MPEG Audio
Format version : Version 1
Format profile : Layer 3
Codec ID : 55
Codec ID/Hint : MP3
Duration : 1h 24mn
Bit rate mode : Constant
Bit rate : 64.0 Kbps
Channel(s) : 1 channel
Sampling rate : 44.1 KHz
Compression mode : Lossy
Stream size : 38.6 MiB (6%)
Alignment : Split accross interleaves
Interleave, duration : 33 ms (0.98 video frame)
Interleave, preload duration : 500 ms

Доп. информация: http://www.gayeroticvideoindex.com/V/5/26125.html

Качество видео: DVDRip
Формат видео: AVI
Видео: Overall bit rate : 1 093 Kbps
Аудио: Bit rate : 64.0 Kbps


Трекер:  [ 11-Мар-2017 14:30 ]

  

Скачать .torrent

Размер .torrent файла 52 KB


Размер: 660 MB
Хэш (hash) релиза: 8577634d0fcb8b48712cbed3b67e4213011154dd

Еще никто не оставлял запись к записи скачать торрент Superboys Супербои . Будь первым!

!Обратная связь