Скачать порно через торрент Asian Strip Mall Massage3 Азиатский Массаж 3 UnionPeer.org бесплатно онлайн HD качество

Скачать новое порно 2015, 2014 новинки через торрент UnionPeer.org

Порно торрент бесплатно ЮнионПир.орг

Если у вас наблюдаются проблемы со скриншотами, переходом по ссылками, скачиванием торрентов - проблемы в блокировщике рекламы AdBlock. #хорошегоДня!


Статистика раздачи
Размер:  1.63 GB   |    Зарегистрирован:  8 месяцев   |    .torrent скачан:  154 раза   |   
Раздают:  1  
   
Загрузка...
 
Автор Сообщение

Galfimbul

avatar Galfimbul


Asian Strip Mall Massage3 / Азиатский Массаж 3 Год производства: 2017 г.
Страна: USA
Жанр: All Sex Blowjob, Handjob, Asian, Massage
Продолжительность: 02:03:36
Язык: Английский

Режиссер: Unknown
Студия: Devil''s Films

В ролях: Audrey Noir. Brenna Sparks .Kehlani Kalypso.Marika Rose .Mark Zane.Tommy Gunn.Marcus London.T. Stone.

Описание: Devil’s Film presents the third installment of Asian Strip Mall Massage, featuring four sexy sweeties from the East that can’t wait to work out all your kinks with their special massage package. You’ve never had a masseuse this hot or attentive, and you’ll wish your local massage place was anywhere this naughty!

Разбит на эпизоды: Да
Доп. информация: http://www.adultdvdempire.com/1887832/asian-strip-mall-massage-3-porn-videos.html

Качество видео: DVDRip
Формат видео: MP4
Видео: MPEG4 Video (H264) 720x406 29.97fps [VideoHandler - MPEG4 Video (H264)]
Аудио: AAC 48000Hz stereo 126kbps [SoundHandler - MPEG-4 Audio]
Bit rate Video: 1 756 Kbps
Bit rate Audio : 127 Kbps
Video
ID : 1
Format : AVC
Format/Info : Advanced Video Codec
Format profile : High@L3.1
Format settings, CABAC : Yes
Format settings, ReFrames : 5 frames
Codec ID : avc1
Codec ID/Info : Advanced Video Coding
Duration : 2h 3mn
Bit rate : 1 756 Kbps
Width : 720 pixels
Height : 406 pixels
Display aspect ratio : 16:9
Frame rate mode : Constant
Frame rate : 29.970 fps
Color space : YUV
Chroma subsampling : 4:2:0
Bit depth : 8 bits
Scan type : Progressive
Bits/(Pixel*Frame) : 0.200
Stream size : 1.52 GiB (93%)
Writing library : x264 core 148 r2744 b97ae06
Encoding settings : / mbtree=1 / crf=20.0 / qcomp=0.60 / qpmin=0 / qpmax=69 / qpstep=4 / ip_ratio=1.40 / aq=1:1.00

Audio
ID : 2
Format : AAC
Format/Info : Advanced Audio Codec
Format profile : LC
Codec ID : 40
Duration : 2h 3mn
Bit rate mode : Constant
Bit rate : 127 Kbps
Channel(s) : 2 channels
Channel positions : Front: L R
Sampling rate : 48.0 KHz
Compression mode : Lossy
Delay relative to video : -2s 2ms
Stream size : 112 MiB (7%)


Трекер:  [ 09-Мар-2017 23:00 ]

  

Скачать .torrent

Размер .torrent файла 17 KB


Размер: 1.63 GB
Хэш (hash) релиза: bac8b0ed0945987577d8fd5439071461207884e7

Еще никто не оставлял запись к записи скачать торрент Asian Strip Mall Massage3 Азиатский Массаж 3 . Будь первым!

!Обратная связь