Скачать порно через торрент My New White Stepdaddy 16 Мой Новый Белый Отчим16 UnionPeer.org бесплатно онлайн HD качество

Скачать новое порно 2015, 2014 новинки через торрент UnionPeer.org

Порно торрент бесплатно ЮнионПир.орг

Если у вас наблюдаются проблемы со скриншотами, переходом по ссылками, скачиванием торрентов - проблемы в блокировщике рекламы AdBlock. #хорошегоДня!


Статистика раздачи
Размер:  1.53 GB   |    Зарегистрирован:  7 месяцев   |    .torrent скачан:  273 раза   |   
Раздают:  1  
   
Загрузка...
 
Автор Сообщение

Galfimbul

avatar Galfimbul


My New White Stepdaddy 16 / Мой Новый Белый Отчим16 Год производства: 2017 г.
Страна: USA
Жанр: Teen +18,All Sex Interracial, Older Men, Family Roleplay
Продолжительность: 02:10:46
Язык: Английский

Режиссер: Unknown
Студия: Devils Film

В ролях: Skyler Nicole Dani Love Ashley Pink Charlie Rae

Описание: An interracial cumming-of-age story! Stepdaddy knows how to hit all the right spots!

Разбит на эпизоды: Да
Доп. информация: http://www.adultdvdempire.com/1892779/my-new-white-stepdaddy-16-porn-videos.html

Качество видео: DVDRip
Формат видео: MP4
Видео: MPEG4 Video (H264) 720x406 29.97fps [VideoHandler - MPEG4 Video (H264)]
Аудио: AAC 48000Hz stereo 136kbps [SoundHandler - MPEG-4 Audio]
Bit rate Video: 1 534 Kbps
Bit rate Audio : 137 Kbps
Video
ID : 1
Format : AVC
Format/Info : Advanced Video Codec
Format profile : High@L3.1
Format settings, CABAC : Yes
Format settings, ReFrames : 5 frames
Codec ID : avc1
Codec ID/Info : Advanced Video Coding
Duration : 2h 10mn
Bit rate : 1 534 Kbps
Width : 720 pixels
Height : 406 pixels
Display aspect ratio : 16:9
Frame rate mode : Constant
Frame rate : 29.970 fps
Color space : YUV
Chroma subsampling : 4:2:0
Bit depth : 8 bits
Scan type : Progressive
Bits/(Pixel*Frame) : 0.175
Stream size : 1.40 GiB (91%)
Writing library : x264 core 148 r2744 b97ae06
Encoding settings : / mbtree=1 / crf=20.0 / qcomp=0.60 / qpmin=0 / qpmax=69 / qpstep=4 / ip_ratio=1.40 / aq=1:1.00

Audio
ID : 2
Format : AAC
Format/Info : Advanced Audio Codec
Format profile : LC
Codec ID : 40
Duration : 2h 10mn
Bit rate mode : Constant
Bit rate : 137 Kbps
Channel(s) : 2 channels
Channel positions : Front: L R
Sampling rate : 48.0 KHz
Compression mode : Lossy
Delay relative to video : -2s 2ms
Stream size : 128 MiB (8%)


Трекер:  [ 09-Мар-2017 21:30 ]

  

Скачать .torrent

Размер .torrent файла 16 KB


Размер: 1.53 GB
Хэш (hash) релиза: 647a2ac58ec3a898a15043cf5d9f4244cd880cd3

Еще никто не оставлял запись к записи скачать торрент My New White Stepdaddy 16 Мой Новый Белый Отчим16 . Будь первым!

!Обратная связь