Rory Gallagher - Irish Tour 74 torrent

, , - AdBlock. #!


32.35 GB   |    :  6 2    |    .torrent :  52    |   
1  
   
...
 

Galfimbul

avatar Galfimbul


Rory Gallagher - Irish Tour '74
: Rock
: 01:24:11, 0:27:03 (Documentary)
: 2011
: 1974 ., .

In 1974, award winning film maker Tony Palmer followed Rory Gallagher and his band on their tour of Ireland. The subsequent movie was released in cinemas to great critical acclaim and has gone on to be accepted as one of the great rock films. Now for the first time the film has been lovingly restored and remastered from the original footage and is being reissued on DVD and released for the first time on Blu-ray. There is a massive improvement in both sound and picture quality over the original DVD release and finally Gallagher fans can get to see the film as it was meant to be, capturing Rory, his music, the period and the place to perfection.
:


1. Walk On Hot Coals
2. Tattoo'd Lady
3. Who's That Comin'
4. A Million Miles Away
5. Going To My Home Town
6. Cradle Rock
7. As The Crow Flies
8. Hands Up
9. Bulfrog Blues

: Blu-ray
: BDMV
: H.264
: DTS
: MPEG-4 AVC Video / 27483 kbps / 1080i / 29,970 fps / 16:9 /
#1: DTS-HD Master Audio / 5.1 / 48 kHz / 4217 kbps / 24-bit (DTS Core: 5.1 / 48 kHz / 1509 kbps / 24-bit)
#2: Dolby Digital Audio / 5.1 / 48 kHz / 640 kbps /
#3: LPCM Audio / 2.0 / 48 kHz / 2304 kbps / 24-bit
#4: LPCM Audio / 2.0 / 48 kHz / 1536 kbps / 16-bit
: French, German, Spanish ( )
Disc Title: Rory.Gallagher.Irish.Tour.Blu-ray
Disc Size: 34740171272 bytes
Protection: AACS
BD-Java: No
BDInfo: 0.5.6

Notes:

BDINFO HOME:
Cinema Squid
http://www.cinemasquid.com/blu-ray/tools/bdinfo

INCLUDES FORUMS REPORT FOR:
AVS Forum Blu-ray Audio and Video Specifications Thread
http://www.avsforum.com/avs-vb/showthread.php?t=1155731

********************
PLAYLIST: 00004.MPLS
********************

<--- BEGIN FORUMS PASTE --->

:

Total Video
Title Codec Length Movie Size Disc Size Bitrate Bitrate Main Audio Track Secondary Audio Track
----- ------ ------- -------------- -------------- ------- ------- ------------------ ---------------------
00004.MPLS AVC 1:24:11 24230916096 34740171272 38,37 27,48 DTS-HD Master 5.1 4217Kbps (48kHz/24-bit) DD AC3 5.1 640Kbps[/spoiler]
[code]DISC INFO:

Disc Title: Rory.Gallagher.Irish.Tour.Blu-ray
Disc Size: 34740171272 bytes
Protection: AACS
BD-Java: No
BDInfo: 0.5.6

PLAYLIST REPORT:

Name: 00004.MPLS
Length: 1:24:11 (h:m:s)
Size: 24230916096 bytes
Total Bitrate: 38,37 Mbps

VIDEO:

Codec Bitrate Description
----- ------- -----------
MPEG-4 AVC Video 27483 kbps 1080i / 29,970 fps / 16:9 / High Profile 4.1

AUDIO:

Codec Language Bitrate Description
----- -------- ------- -----------
DTS-HD Master Audio English 4217 kbps 5.1 / 48 kHz / 4217 kbps / 24-bit (DTS Core: 5.1 / 48 kHz / 1509 kbps / 24-bit)
Dolby Digital Audio English 640 kbps 5.1 / 48 kHz / 640 kbps / DN -4dB
LPCM Audio English 2304 kbps 2.0 / 48 kHz / 2304 kbps / 24-bit
LPCM Audio English 1536 kbps 2.0 / 48 kHz / 1536 kbps / 16-bit

FILES:

Name Time In Length Size Total Bitrate
---- ------- ------ ---- -------------
00001.M2TS 0:00:00.000 1:24:11.880 24230916096 38371

CHAPTERS:

Number Time In Length Avg Video Rate Max 1-Sec Rate Max 1-Sec Time Max 5-Sec Rate Max 5-Sec Time Max 10Sec Rate Max 10Sec Time Avg Frame Size Max Frame Size Max Frame Time
------ ------- ------ -------------- -------------- -------------- -------------- -------------- -------------- -------------- -------------- -------------- --------------
1 0:00:00.000 0:15:16.982 27627 kbps 34827 kbps 00:04:48.921 32381 kbps 00:00:50.250 31805 kbps 00:00:46.613 115222 bytes 454125 bytes 00:00:38.304
2 0:15:16.982 0:06:28.287 27255 kbps 34513 kbps 00:20:13.111 31469 kbps 00:16:24.450 30419 kbps 00:18:45.357 113676 bytes 405915 bytes 00:17:28.747
3 0:21:45.270 0:08:42.755 27424 kbps 35069 kbps 00:26:08.133 31231 kbps 00:22:00.852 30284 kbps 00:21:56.281 114381 bytes 410752 bytes 00:22:09.961
4 0:30:28.026 0:07:31.984 27746 kbps 34724 kbps 00:32:14.232 32036 kbps 00:33:22.533 31097 kbps 00:33:22.300 115723 bytes 433565 bytes 00:33:22.700
5 0:38:00.011 0:08:01.247 27995 kbps 35384 kbps 00:39:32.336 31673 kbps 00:38:53.264 30399 kbps 00:39:37.975 116762 bytes 420433 bytes 00:39:42.680
6 0:46:01.258 0:11:46.205 28306 kbps 35679 kbps 00:46:57.614 30746 kbps 00:52:40.490 29899 kbps 00:52:41.758 118058 bytes 422520 bytes 00:52:43.160
7 0:57:47.464 0:04:31.904 28270 kbps 34060 kbps 01:01:01.624 31263 kbps 01:01:00.857 29986 kbps 01:01:58.381 117909 bytes 390255 bytes 01:01:40.596
8 1:02:19.368 0:12:57.610 27877 kbps 37108 kbps 01:04:04.407 31380 kbps 01:11:15.838 30313 kbps 01:11:15.404 116272 bytes 415102 bytes 01:04:05.341
9 1:15:16.979 0:08:54.901 24714 kbps 33864 kbps 01:20:51.446 30668 kbps 01:16:48.470 30179 kbps 01:16:42.998 103084 bytes 423879 bytes 01:23:26.334

STREAM DIAGNOSTICS:

File PID Type Codec Language Seconds Bitrate Bytes Packets
---- --- ---- ----- -------- -------------- -------------- ------------- -----
00001.M2TS 4113 (0x1011) 0x1B AVC 5051,780 27483 17354820452 94408389
00001.M2TS 4352 (0x1100) 0x80 LPCM eng (English) 5051,780 2291 1446888000 8016000
00001.M2TS 4353 (0x1101) 0x81 AC3 eng (English) 5051,780 635 400798720 2348430
00001.M2TS 4354 (0x1102) 0x86 DTS-HD MA eng (English) 5051,780 4217 2662919660 15253614
00001.M2TS 4355 (0x1103) 0x80 LPCM eng (English) 5051,780 1528 965126916 6007014[/code]
<---- END FORUMS PASTE ---->

QUICK SUMMARY:

Disc Title: Rory.Gallagher.Irish.Tour.Blu-ray
Disc Size: 34740171272 bytes
Protection: AACS
BD-Java: No
Playlist: 00004.MPLS
Size: 24230916096 bytes
Length: 1:24:11
Total Bitrate: 38,37 Mbps
Video: MPEG-4 AVC Video / 27483 kbps / 1080i / 29,970 fps / 16:9 / High Profile 4.1
Audio: English / DTS-HD Master Audio / 5.1 / 48 kHz / 4217 kbps / 24-bit (DTS Core: 5.1 / 48 kHz / 1509 kbps / 24-bit)
Audio: English / Dolby Digital Audio / 5.1 / 48 kHz / 640 kbps / DN -4dB
Audio: English / LPCM Audio / 2.0 / 48 kHz / 2304 kbps / 24-bit
Audio: English / LPCM Audio / 2.0 / 48 kHz / 1536 kbps / 16-bit

********************
PLAYLIST: 00005.MPLS
********************

<--- BEGIN FORUMS PASTE --->
[code]Total Video
Title Codec Length Movie Size Disc Size Bitrate Bitrate Main Audio Track Secondary Audio Track
----- ------ ------- -------------- -------------- ------- ------- ------------------ ---------------------
00005.MPLS AVC 0:27:03 6759929856 34740171272 33,30 30,00 LPCM 2.0 1536Kbps (48kHz/16-bit)[/code]
[code]DISC INFO:

Disc Title: Rory.Gallagher.Irish.Tour.Blu-ray
Disc Size: 34740171272 bytes
Protection: AACS
BD-Java: No
BDInfo: 0.5.6

PLAYLIST REPORT:

Name: 00005.MPLS
Length: 0:27:03 (h:m:s)
Size: 6759929856 bytes
Total Bitrate: 33,30 Mbps

VIDEO:

Codec Bitrate Description
----- ------- -----------
MPEG-4 AVC Video 29996 kbps 1080i / 29,970 fps / 16:9 / High Profile 4.1

AUDIO:

Codec Language Bitrate Description
----- -------- ------- -----------
LPCM Audio English 1536 kbps 2.0 / 48 kHz / 1536 kbps / 16-bit

SUBTITLES:

Codec Language Bitrate Description
----- -------- ------- -----------
Presentation Graphics English 18,285 kbps
Presentation Graphics French 17,102 kbps
Presentation Graphics German 19,987 kbps
Presentation Graphics Spanish 17,394 kbps

FILES:

Name Time In Length Size Total Bitrate
---- ------- ------ ---- -------------
00002.M2TS 0:00:00.000 0:27:03.989 6759929856 33300

CHAPTERS:

Number Time In Length Avg Video Rate Max 1-Sec Rate Max 1-Sec Time Max 5-Sec Rate Max 5-Sec Time Max 10Sec Rate Max 10Sec Time Avg Frame Size Max Frame Size Max Frame Time
------ ------- ------ -------------- -------------- -------------- -------------- -------------- -------------- -------------- -------------- -------------- --------------
1 0:00:00.000 0:07:26.979 30322 kbps 46142 kbps 00:05:42.975 42044 kbps 00:05:41.407 39191 kbps 00:05:38.004 126458 bytes 475338 bytes 00:05:43.976
2 0:07:26.979 0:08:25.171 29379 kbps 42387 kbps 00:07:46.466 39289 kbps 00:07:46.365 38350 kbps 00:07:42.528 122536 bytes 401724 bytes 00:07:58.010
3 0:15:52.151 0:03:01.881 31262 kbps 43760 kbps 00:17:42.494 40322 kbps 00:17:40.926 39551 kbps 00:17:35.954 130389 bytes 409659 bytes 00:17:43.462
4 0:18:54.032 0:08:09.956 29863 kbps 42963 kbps 00:24:48.620 40122 kbps 00:24:47.219 37956 kbps 00:20:31.897 124562 bytes 412555 bytes 00:20:38.770

STREAM DIAGNOSTICS:

File PID Type Codec Language Seconds Bitrate Bytes Packets
---- --- ---- ----- -------- -------------- -------------- ------------- -----
00002.M2TS 4113 (0x1011) 0x1B AVC 1623,856 29998 6089049990 33121385
00002.M2TS 4352 (0x1100) 0x80 LPCM eng (English) 1623,856 1543 313131300 1948950
00002.M2TS 4608 (0x1200) 0x90 PGS eng (English) 1623,856 18 3711755 20900
00002.M2TS 4609 (0x1201) 0x90 PGS deu (German) 1623,856 20 4057345 22786
00002.M2TS 4610 (0x1202) 0x90 PGS spa (Spanish) 1623,856 17 3530873 19925
00002.M2TS 4611 (0x1203) 0x90 PGS fra (French) 1623,856 17 3471784 19602[/code]
<---- END FORUMS PASTE ---->

QUICK SUMMARY:

Disc Title: Rory.Gallagher.Irish.Tour.Blu-ray
Disc Size: 34740171272 bytes
Protection: AACS
BD-Java: No
Playlist: 00005.MPLS
Size: 6759929856 bytes
Length: 0:27:03
Total Bitrate: 33,30 Mbps
Video: MPEG-4 AVC Video / 29996 kbps / 1080i / 29,970 fps / 16:9 / High Profile 4.1
Audio: English / LPCM Audio / 2.0 / 48 kHz / 1536 kbps / 16-bit
Subtitle: English / 18,285 kbps
Subtitle: French / 17,102 kbps
Subtitle: German / 19,987 kbps
Subtitle: Spanish / 17,394 kbps

********************
PLAYLIST: 00006.MPLS
********************

<--- BEGIN FORUMS PASTE --->
[code]Total Video
Title Codec Length Movie Size Disc Size Bitrate Bitrate Main Audio Track Secondary Audio Track
----- ------ ------- -------------- -------------- ------- ------- ------------------ ---------------------
00006.MPLS AVC 0:11:33 3238465536 34740171272 37,33 27,51 DTS-HD Master 5.1 4966Kbps (48kHz/24-bit) DD AC3 5.1 640Kbps[/code]
[code]DISC INFO:

Disc Title: Rory.Gallagher.Irish.Tour.Blu-ray
Disc Size: 34740171272 bytes
Protection: AACS
BD-Java: No
BDInfo: 0.5.6

PLAYLIST REPORT:

Name: 00006.MPLS
Length: 0:11:33 (h:m:s)
Size: 3238465536 bytes
Total Bitrate: 37,33 Mbps

VIDEO:

Codec Bitrate Description
----- ------- -----------
MPEG-4 AVC Video 27512 kbps 1080i / 29,970 fps / 16:9 / High Profile 4.1

AUDIO:

Codec Language Bitrate Description
----- -------- ------- -----------
DTS-HD Master Audio English 4966 kbps 5.1 / 48 kHz / 4966 kbps / 24-bit (DTS Core: 5.1 / 48 kHz / 1509 kbps / 24-bit)
Dolby Digital Audio English 640 kbps 5.1 / 48 kHz / 640 kbps / DN -4dB
LPCM Audio English 2304 kbps 2.0 / 48 kHz / 2304 kbps / 24-bit

FILES:

Name Time In Length Size Total Bitrate
---- ------- ------ ---- -------------
00003.M2TS 0:00:00.000 0:11:33.993 3238465536 37331

CHAPTERS:

Number Time In Length Avg Video Rate Max 1-Sec Rate Max 1-Sec Time Max 5-Sec Rate Max 5-Sec Time Max 10Sec Rate Max 10Sec Time Avg Frame Size Max Frame Size Max Frame Time
------ ------- ------ -------------- -------------- -------------- -------------- -------------- -------------- -------------- -------------- -------------- --------------
1 0:00:00.000 0:11:33.993 27512 kbps 38708 kbps 00:02:46.132 34405 kbps 00:00:21.321 33815 kbps 00:00:15.115 114748 bytes 557002 bytes 00:02:46.232

STREAM DIAGNOSTICS:

File PID Type Codec Language Seconds Bitrate Bytes Packets
---- --- ---- ----- -------- -------------- -------------- ------------- -----
00003.M2TS 4113 (0x1011) 0x1B AVC 693,927 27515 2386652038 12983113
00003.M2TS 4352 (0x1100) 0x80 LPCM eng (English) 693,927 2274 197215744 1092608
00003.M2TS 4353 (0x1101) 0x81 AC3 eng (English) 693,927 630 54630400 320100
00003.M2TS 4354 (0x1102) 0x86 DTS-HD MA eng (English) 693,927 4967 430823940 2447925[/code]
<---- END FORUMS PASTE ---->

QUICK SUMMARY:

Disc Title: Rory.Gallagher.Irish.Tour.Blu-ray
Disc Size: 34740171272 bytes
Protection: AACS
BD-Java: No
Playlist: 00006.MPLS
Size: 3238465536 bytes
Length: 0:11:33
Total Bitrate: 37,33 Mbps
Video: MPEG-4 AVC Video / 27512 kbps / 1080i / 29,970 fps / 16:9 / High Profile 4.1
Audio: English / DTS-HD Master Audio / 5.1 / 48 kHz / 4966 kbps / 24-bit (DTS Core: 5.1 / 48 kHz / 1509 kbps / 24-bit)
Audio: English / Dolby Digital Audio / 5.1 / 48 kHz / 640 kbps / DN -4dB
Audio: English / LPCM Audio / 2.0 / 48 kHz / 2304 kbps / 24-bit

********************
PLAYLIST: 00008.MPLS
********************

<--- BEGIN FORUMS PASTE --->
[code]Total Video
Title Codec Length Movie Size Disc Size Bitrate Bitrate Main Audio Track Secondary Audio Track
----- ------ ------- -------------- -------------- ------- ------- ------------------ ---------------------
00008.MPLS AVC 0:00:20 6912000 34740171272 2,76 2,56[/code]
[code]DISC INFO:

Disc Title: Rory.Gallagher.Irish.Tour.Blu-ray
Disc Size: 34740171272 bytes
Protection: AACS
BD-Java: No
BDInfo: 0.5.6

PLAYLIST REPORT:

Name: 00008.MPLS
Length: 0:00:20 (h:m:s)
Size: 6912000 bytes
Total Bitrate: 2,76 Mbps

VIDEO:

Codec Bitrate Description
----- ------- -----------
MPEG-4 AVC Video 2564 kbps 1080i / 29,970 fps / 16:9 / High Profile 4.1

FILES:

Name Time In Length Size Total Bitrate
---- ------- ------ ---- -------------
00010.M2TS 0:00:00.000 0:00:10.009 3723264 2976
00011.M2TS 0:00:10.009 0:00:10.009 3188736 2548

CHAPTERS:

Number Time In Length Avg Video Rate Max 1-Sec Rate Max 1-Sec Time Max 5-Sec Rate Max 5-Sec Time Max 10Sec Rate Max 10Sec Time Avg Frame Size Max Frame Size Max Frame Time
------ ------- ------ -------------- -------------- -------------- -------------- -------------- -------------- -------------- -------------- -------------- --------------
1 0:00:00.000 0:00:20.019 2564 kbps 3613 kbps 00:00:00.200 2961 kbps 00:00:01.000 2752 kbps 00:00:00.333 10693 bytes 198113 bytes 00:00:08.408

STREAM DIAGNOSTICS:

File PID Type Codec Language Seconds Bitrate Bytes Packets
---- --- ---- ----- -------- -------------- -------------- ------------- -----
00010.M2TS 4113 (0x1011) 0x1B AVC 9,910 2792 3458488 19033
00011.M2TS 4113 (0x1011) 0x1B AVC 9,910 2387 2957174 16266[/code]
<---- END FORUMS PASTE ---->

QUICK SUMMARY:

Disc Title: Rory.Gallagher.Irish.Tour.Blu-ray
Disc Size: 34740171272 bytes
Protection: AACS
BD-Java: No
Playlist: 00008.MPLS
Size: 6912000 bytes
Length: 0:00:20
Total Bitrate: 2,76 Mbps
Video: MPEG-4 AVC Video / 2564 kbps / 1080i / 29,970 fps / 16:9 / High Profile 4.1


 ·  , , FAQ-
:  [ 29--2011 00:04 ]

  

.torrent

.torrent 44 KB


: 32.35 GB
(hash) : 1eddc3db47de6834a315fc581bd56abef4d98a25
··
...

Rory Gallagher - Irish Tour 74 . !

!