Скачать через торрент Штрафник Серии: 1-12 из 12 Фильм бесплатно в хорошем качестве torrent

Скачивайте на UnionPeer.org фильмы через торрент без регистрации. Новинки кино в хорошем качестве через торрент. На UnionPeer.org можно скачать через торрент фильмы 2014 и 2015 годов. Самые новые фильмы.

Скачать торрент Штрафник Серии: 1-12 из 12 бесплатно через .torrent фильм мультфильм сериал

Если у вас наблюдаются проблемы со скриншотами, переходом по ссылками, скачиванием торрентов - проблемы в блокировщике рекламы AdBlock. #хорошегоДня!


Статистика раздачи
Размер:  24.46 GB   |    Зарегистрирован:  4 месяца 13 дней   |    .torrent скачан:  282 раза   |   
Раздают:  1  
   
Загрузка...
 
Автор Сообщение

Galfimbul

avatar Galfimbul


Штрафник

Год выпуска: 2016
Производство: Star Media
Жанр: Детектив
Продолжительность: 00:50:00
Субтитры: нет
Режиссёр: Олег Фомин
В ролях: Кирилл Сафонов, Максим Дрозд, Иева Андреевайте, Олег Фомин, Константин Милованов, Анастасия Немец, Екатерина Волкова, Рустам Сагдуллаев, Дмитрий Куличков, Алеся Гузько, Михаил Дорожкин, Евгений Куршинский, Александр Шам, Евгений Мундум, Виктория Лукина, Константин Гацалов, Анна Тараторкина, Эдуард Федашко, Денис Константинов, Сергей Серов, Игорь Литовкин (II), Наталья Беляева, Алексей Хаустов, Игорь Кулачко, Владимир Виноградов, Александр Лойе, Влад Красавин, Екатерина Мадалинская, Вячеслав Щенин, Роман Гредин, Кирилл Дубровицкий, Лидия Копина, Кирилл Захаров, Егор Новокшонов
Описание: Капитан Игнат Белов возвращается домой после окончания службы. В поезде он встречает преступника Сыча, которого знает с детства. Много лет назад Сыч с малолетними подельниками втянул маленького Игната в ограбление склада с тушёнкой. Получилось так, что Игнат спас Сыча, попавшего в ловушку, но дальше их дороги разошлись. Сыч рад встрече и предлагает Игнату еще раз рискнуть, но тот отказывается. Заподозрив, что «кореш» что-то задумал, Игнат решает ему помешать. Однако несогласованная инициатива оборачивается для нашего героя арестом. На помощь приходит боевой товарищ капитана – начальник УГРО Тимошенко, он готов помочь Белову, при условии, что тот внедрится и ликвидирует опасную банду Горелого через старого знакомого - Сыча. Взамен Игнат будет реабилитирован и сможет вернуться к нормальной жизни. Игнат соглашается. Они вместе с Тимошенко организуют побег из тюрьмы, чтобы у Игната была «хорошая легенда». Игнат обосновывается в городе, живет в коммуналке, где знакомится с красавицей скрипачкой Виолой и боевой девчонкой Сашкой, которую поначалу принимает за мальчика. Они станут для Игната настоящей семьей. Но прежде, чем это случится, Игнату придется пройти полный опасностей путь, пока он, наконец, не доберется до Горелого. И тут Игната ждет большой сюрприз…
/ Сэмпл
Релиз-группа:
Качество: HDTV 1080i
Формат: TS
Видео кодек: H.264
Аудио кодек: AC3
Видео: MPEG-4 AVC, 1920x1080 (16:9), 25.000 fps, 4827 Kbps, 0.093 bits/pixel
Аудио 1: 48 kHz, AC3 Dolby Digital, 3/2 (L,C,R,l,r) + LFE ch, 384 Kbps
Аудио 2: 48 kHz, MP2, 2 ch, 192 Kbps
Реклама: Нет
General #1
ID : 1 (0x1)
Complete name : Downloads\Shtrafnik.HDTV(1080i).GeneralFilm\Shtrafnik.01.HDTV(1080i).GeneralFilm.ts
Format : MPEG-TS
File size : 2.06 GiB
Duration : 51mn 42s
Overall bit rate mode : Variable
Overall bit rate : 5 690 Kbps
Video #1904
ID : 1904 (0x770)
Menu ID : 80 (0x50)
Format : AVC
Format/Info : Advanced Video Codec
Format profile : High@L4.0
Format settings, CABAC : Yes
Format settings, ReFrames : 3 frames
Format settings, GOP : M=4, N=32
Codec ID : 27
Duration : 51mn 41s
Bit rate : 4 827 Kbps
Width : 1 920 pixels
Height : 1 080 pixels
Display aspect ratio : 16:9
Frame rate : 25.000 fps
Standard : Component
Color space : YUV
Chroma subsampling : 4:2:0
Bit depth : 8 bits
Scan type : Interlaced
Scan order : Top Field First
Bits/(Pixel*Frame) : 0.093
Stream size : 1.74 GiB (85%)
Color primaries : BT.709
Transfer characteristics : BT.709
Matrix coefficients : BT.709
Color range : Limited
Audio #2904
ID : 2904 (0xB58)
Menu ID : 80 (0x50)
Format : AC-3
Format/Info : Audio Coding 3
Mode extension : CM (complete main)
Format settings, Endianness : Big
Codec ID : 6
Duration : 51mn 41s
Bit rate mode : Constant
Bit rate : 384 Kbps
Channel(s) : 6 channels
Channel positions : Front: L C R, Side: L R, LFE
Sampling rate : 48.0 KHz
Bit depth : 16 bits
Compression mode : Lossy
Delay relative to video : -120ms
Stream size : 142 MiB (7%)
Language : Russian
Audio #2905
ID : 2905 (0xB59)
Menu ID : 80 (0x50)
Format : MPEG Audio
Format version : Version 1
Format profile : Layer 2
Codec ID : 3
Duration : 51mn 41s
Bit rate mode : Constant
Bit rate : 192 Kbps
Channel(s) : 2 channels
Sampling rate : 48.0 KHz
Compression mode : Lossy
Delay relative to video : -120ms
Stream size : 71.0 MiB (3%)
Language : Russian


Трекер:  [ 08-Мар-2017 10:30 ]

  

Скачать .torrent

Размер .torrent файла 123 KB


Размер: 24.46 GB
Хэш (hash) релиза: 5b99d879c559c860b132301a5d4d0e3b3f88c890
Подписка на обновления:

Торренты, похожие на Штрафник Серии: 1-12 из 12 скачать торрент

Форум Название Автор Размер S L Добавлен
Российские сериалы ·· Штрафник / Серии: 1-8 из 12 (Олег Фомин) [2016, Детектив, HDTVRip 720p] Galfimbul 1139231239910.61 GB 0 0 1488654988

22:16

4-Мар-17

Российские сериалы ·· Штрафник / Серии: 1-2 из 12 (Олег Фомин) [2016,приключения, детектив, SATRip-AVC] Galfimbul 14510589331.35 GB 0 0 1488275027

12:43

28-Фев-17

Российские сериалы ·· Штрафник / Серии: 1-2 из 12 (Олег Фомин) [2016, Детектив, HDTVRip] Galfimbul 13832028161.29 GB 0 0 1488221556

21:52

27-Фев-17

Еще никто не оставлял запись к записи скачать торрент Штрафник Серии: 1-12 из 12 . Будь первым!

!Обратная связь