Ayo - Live at the Olympia torrent

, , - AdBlock. #!


31.62 GB   |    :  6    |    .torrent :  75    |   
1  
   
...
 

Galfimbul

avatar Galfimbul


Ayo - Live at the Olympia

: 2008
: Soul, Jazz
: 01:34:37
: - Ayo, , . Ayo . "". Ayo. Ayo, , -, , "". .
:
01. Without You
02. Letter by Letter
03. Only You
04. Africa
05. Help Is Coming
06. Girls
07. What Is Love
08. And Its Supposed to Be Love
09. Watching You
10. Down on My Knees
11. Neva Been
12. Life Is Real
:
Life After the Olympia:
Paleo Festivalu
Byron Bay Blues 7 Roots Festival
KT Art Hall
Life According to Ayo
Video Clips:
Down On My Knees
And It'S Supposed To Be Love
Help Is Coming
Help Is Coming (internet version)
Life Is Real
Lead Sheets:
Help Is Coming
Life Is Real
Without You
:
by crazy_gringo
: Bluray
: BDMV
: MPEG-4 AVC
: DTS-HD
: 1920x1080i, MPEG-4 AVC, 25.000 fps, ~34998 kbps
1: English DTS-HD MA 5.1 (48 kHz / 5080 kbps / 24-bit)
2: English DTS-HD MA 2.0 (48 kHz / 1823 kbps / 24-bit)
Disc Title:
Disc Size: 33947421508 bytes
Protection: AACS
BD-Java: No
BDInfo: 0.5.3

Notes:

BDINFO HOME:
Cinema Squid
http://www.cinemasquid.com/blu-ray/tools/bdinfo

INCLUDES FORUMS REPORT FOR:
AVS Forum Blu-ray Audio and Video Specifications Thread
http://www.avsforum.com/avs-vb/showthread.php?t=1155731

********************
PLAYLIST: 00014.MPLS
********************

<--- BEGIN FORUMS PASTE --->

:

Total Video
Title Codec Length Movie Size Disc Size Bitrate Bitrate Main Audio Track Secondary Audio Track
----- ------ ------- -------------- -------------- ------- ------- ------------------ ---------------------
00014.MPLS AVC 1:34:37 31443652608 33947421508 44,30 35,00 DTS-HD Master 5.1 5080Kbps (48kHz/24-bit) DTS-HD Master 2.0 1823Kbps (48kHz/24-bit)[/spoiler]
[code]DISC INFO:

Disc Title:
Disc Size: 33947421508 bytes
Protection: AACS
BD-Java: No
BDInfo: 0.5.3

PLAYLIST REPORT:

Name: 00014.MPLS
Length: 1:34:37 (h:m:s)
Size: 31443652608 bytes
Total Bitrate: 44,30 Mbps

VIDEO:

Codec Bitrate Description
----- ------- -----------
MPEG-4 AVC Video 34998 kbps 1080i / 25 fps / 16:9 / High Profile 4.1

AUDIO:

Codec Language Bitrate Description
----- -------- ------- -----------
DTS-HD Master Audio English 5080 kbps 5.1 / 48 kHz / 5080 kbps / 24-bit (DTS Core: 5.1 / 48 kHz / 1509 kbps / 24-bit)
DTS-HD Master Audio English 1823 kbps 2.0 / 48 kHz / 1823 kbps / 24-bit (DTS Core: 2.0 / 48 kHz / 1509 kbps / 24-bit)

FILES:

Name Time In Length Size Total Bitrate
---- ------- ------ ---- -------------
00016.M2TS 0:00:00.000 1:34:37.800 31443652608 44304

CHAPTERS:

Number Time In Length Avg Video Rate Max 1-Sec Rate Max 1-Sec Time Max 5-Sec Rate Max 5-Sec Time Max 10Sec Rate Max 10Sec Time Avg Frame Size Max Frame Size Max Frame Time
------ ------- ------ -------------- -------------- -------------- -------------- -------------- -------------- -------------- -------------- -------------- --------------
1 0:00:00.000 0:07:42.000 34996 kbps 37904 kbps 00:02:17.080 35595 kbps 00:02:37.040 35300 kbps 00:02:08.080 174964 bytes 446701 bytes 00:02:40.880
2 0:07:42.000 0:04:31.000 35003 kbps 37899 kbps 00:07:54.440 35560 kbps 00:07:50.400 35299 kbps 00:07:45.440 175016 bytes 413616 bytes 00:07:58.520
3 0:12:13.000 0:04:48.000 34997 kbps 37280 kbps 00:15:40.320 35432 kbps 00:12:32.040 35238 kbps 00:12:18.360 174985 bytes 384397 bytes 00:12:42.320
4 0:17:01.000 0:05:56.799 34998 kbps 37194 kbps 00:20:19.960 35475 kbps 00:20:16.000 35248 kbps 00:19:59.440 174991 bytes 420942 bytes 00:20:11.119
5 0:22:57.800 0:07:48.200 34994 kbps 37593 kbps 00:27:14.880 35637 kbps 00:27:11.920 35362 kbps 00:27:07.080 174970 bytes 412299 bytes 00:27:58.600
6 0:30:46.000 0:06:59.399 35001 kbps 37315 kbps 00:37:41.720 35714 kbps 00:37:37.720 35398 kbps 00:37:32.640 175003 bytes 419399 bytes 00:35:11.239
7 0:37:45.399 0:05:37.200 34998 kbps 37266 kbps 00:40:53.120 35548 kbps 00:38:05.000 35273 kbps 00:37:59.960 174988 bytes 397524 bytes 00:38:09.520
8 0:43:22.600 0:07:13.399 34993 kbps 37380 kbps 00:45:36.760 35697 kbps 00:45:34.200 35352 kbps 00:45:29.160 174966 bytes 432441 bytes 00:44:11.040
9 0:50:36.000 0:05:16.000 35004 kbps 37349 kbps 00:52:59.800 35571 kbps 00:52:55.840 35281 kbps 00:52:50.760 175019 bytes 427346 bytes 00:54:31.640
10 0:55:52.000 0:06:59.000 34996 kbps 37541 kbps 00:59:59.880 35525 kbps 00:57:28.080 35272 kbps 00:56:45.200 174979 bytes 436784 bytes 01:00:00.320
11 1:02:51.000 0:14:49.000 34997 kbps 37723 kbps 01:06:34.320 35778 kbps 01:14:17.520 35390 kbps 01:14:12.480 174986 bytes 471402 bytes 01:11:55.840
12 1:17:40.000 0:16:57.800 34998 kbps 38064 kbps 01:19:48.320 35578 kbps 01:25:30.480 35274 kbps 01:25:40.520 174996 bytes 421496 bytes 01:19:51.000

STREAM DIAGNOSTICS:

File PID Type Codec Language Seconds Bitrate Bytes Packets
---- --- ---- ----- -------- -------------- -------------- ------------- -----
00016.M2TS 4113 (0x1011) 0x1B AVC 5677,640 34999 24838625222 135145208
00016.M2TS 4352 (0x1100) 0x86 DTS-HD MA eng (English) 5677,640 5080 3605357684 20479634
00016.M2TS 4353 (0x1101) 0x86 DTS-HD MA eng (English) 5677,640 1823 1293787540 7953955[/code]
<---- END FORUMS PASTE ---->

QUICK SUMMARY:

Disc Title:
Disc Size: 33947421508 bytes
Protection: AACS
BD-Java: No
Playlist: 00014.MPLS
Size: 31443652608 bytes
Length: 1:34:37
Total Bitrate: 44,30 Mbps
Video: MPEG-4 AVC Video / 34998 kbps / 1080i / 25 fps / 16:9 / High Profile 4.1
Audio: English / DTS-HD Master Audio / 5.1 / 48 kHz / 5080 kbps / 24-bit (DTS Core: 5.1 / 48 kHz / 1509 kbps / 24-bit)
Audio: English / DTS-HD Master Audio / 2.0 / 48 kHz / 1823 kbps / 24-bit (DTS Core: 2.0 / 48 kHz / 1509 kbps / 24-bit)

********************
PLAYLIST: 00018.MPLS
********************

<--- BEGIN FORUMS PASTE --->
[code]Total Video
Title Codec Length Movie Size Disc Size Bitrate Bitrate Main Audio Track Secondary Audio Track
----- ------ ------- -------------- -------------- ------- ------- ------------------ ---------------------
00018.MPLS AVC 1:34:37 31443652608 33947421508 44,30 35,00 DTS-HD Master 5.1 5080Kbps (48kHz/24-bit) DTS-HD Master 2.0 1823Kbps (48kHz/24-bit)[/code]
[code]DISC INFO:

Disc Title:
Disc Size: 33947421508 bytes
Protection: AACS
BD-Java: No
BDInfo: 0.5.3

PLAYLIST REPORT:

Name: 00018.MPLS
Length: 1:34:37 (h:m:s)
Size: 31443652608 bytes
Total Bitrate: 44,30 Mbps

VIDEO:

Codec Bitrate Description
----- ------- -----------
MPEG-4 AVC Video 34998 kbps 1080i / 25 fps / 16:9 / High Profile 4.1

AUDIO:

Codec Language Bitrate Description
----- -------- ------- -----------
DTS-HD Master Audio English 5080 kbps 5.1 / 48 kHz / 5080 kbps / 24-bit (DTS Core: 5.1 / 48 kHz / 1509 kbps / 24-bit)
DTS-HD Master Audio English 1823 kbps 2.0 / 48 kHz / 1823 kbps / 24-bit (DTS Core: 2.0 / 48 kHz / 1509 kbps / 24-bit)

FILES:

Name Time In Length Size Total Bitrate
---- ------- ------ ---- -------------
00016.M2TS 0:00:00.000 1:34:37.800 31443652608 44304

CHAPTERS:

Number Time In Length Avg Video Rate Max 1-Sec Rate Max 1-Sec Time Max 5-Sec Rate Max 5-Sec Time Max 10Sec Rate Max 10Sec Time Avg Frame Size Max Frame Size Max Frame Time
------ ------- ------ -------------- -------------- -------------- -------------- -------------- -------------- -------------- -------------- -------------- --------------
1 0:00:00.000 0:07:42.000 34996 kbps 37904 kbps 00:02:17.080 35595 kbps 00:02:37.040 35300 kbps 00:02:08.080 174964 bytes 446701 bytes 00:02:40.880
2 0:07:42.000 0:04:31.000 35003 kbps 37899 kbps 00:07:54.440 35560 kbps 00:07:50.400 35299 kbps 00:07:45.440 175016 bytes 413616 bytes 00:07:58.520
3 0:12:13.000 0:04:48.000 34997 kbps 37280 kbps 00:15:40.320 35432 kbps 00:12:32.040 35238 kbps 00:12:18.360 174985 bytes 384397 bytes 00:12:42.320
4 0:17:01.000 0:05:56.799 34998 kbps 37194 kbps 00:20:19.960 35475 kbps 00:20:16.000 35248 kbps 00:19:59.440 174991 bytes 420942 bytes 00:20:11.119
5 0:22:57.800 0:07:48.200 34994 kbps 37593 kbps 00:27:14.880 35637 kbps 00:27:11.920 35362 kbps 00:27:07.080 174970 bytes 412299 bytes 00:27:58.600
6 0:30:46.000 0:06:59.399 35001 kbps 37315 kbps 00:37:41.720 35714 kbps 00:37:37.720 35398 kbps 00:37:32.640 175003 bytes 419399 bytes 00:35:11.239
7 0:37:45.399 0:05:37.200 34998 kbps 37266 kbps 00:40:53.120 35548 kbps 00:38:05.000 35273 kbps 00:37:59.960 174988 bytes 397524 bytes 00:38:09.520
8 0:43:22.600 0:07:13.399 34993 kbps 37380 kbps 00:45:36.760 35697 kbps 00:45:34.200 35352 kbps 00:45:29.160 174966 bytes 432441 bytes 00:44:11.040
9 0:50:36.000 0:05:16.000 35004 kbps 37349 kbps 00:52:59.800 35571 kbps 00:52:55.840 35281 kbps 00:52:50.760 175019 bytes 427346 bytes 00:54:31.640
10 0:55:52.000 0:06:59.000 34996 kbps 37541 kbps 00:59:59.880 35525 kbps 00:57:28.080 35272 kbps 00:56:45.200 174979 bytes 436784 bytes 01:00:00.320
11 1:02:51.000 0:14:49.000 34997 kbps 37723 kbps 01:06:34.320 35778 kbps 01:14:17.520 35390 kbps 01:14:12.480 174986 bytes 471402 bytes 01:11:55.840
12 1:17:40.000 0:16:57.800 34998 kbps 38064 kbps 01:19:48.320 35578 kbps 01:25:30.480 35274 kbps 01:25:40.520 174996 bytes 421496 bytes 01:19:51.000

STREAM DIAGNOSTICS:

File PID Type Codec Language Seconds Bitrate Bytes Packets
---- --- ---- ----- -------- -------------- -------------- ------------- -----
00016.M2TS 4113 (0x1011) 0x1B AVC 5677,640 34999 24838625222 135145208
00016.M2TS 4352 (0x1100) 0x86 DTS-HD MA eng (English) 5677,640 5080 3605357684 20479634
00016.M2TS 4353 (0x1101) 0x86 DTS-HD MA eng (English) 5677,640 1823 1293787540 7953955[/code]
<---- END FORUMS PASTE ---->

QUICK SUMMARY:

Disc Title:
Disc Size: 33947421508 bytes
Protection: AACS
BD-Java: No
Playlist: 00018.MPLS
Size: 31443652608 bytes
Length: 1:34:37
Total Bitrate: 44,30 Mbps
Video: MPEG-4 AVC Video / 34998 kbps / 1080i / 25 fps / 16:9 / High Profile 4.1
Audio: English / DTS-HD Master Audio / 5.1 / 48 kHz / 5080 kbps / 24-bit (DTS Core: 5.1 / 48 kHz / 1509 kbps / 24-bit)
Audio: English / DTS-HD Master Audio / 2.0 / 48 kHz / 1823 kbps / 24-bit (DTS Core: 2.0 / 48 kHz / 1509 kbps / 24-bit)

********************
PLAYLIST: 00012.MPLS
********************

<--- BEGIN FORUMS PASTE --->
[code]Total Video
Title Codec Length Movie Size Disc Size Bitrate Bitrate Main Audio Track Secondary Audio Track
----- ------ ------- -------------- -------------- ------- ------- ------------------ ---------------------
00012.MPLS MPEG-2 0:21:00 695046144 33947421508 4,41 3,92 DD AC3 2.0 192Kbps[/code]
[code]DISC INFO:

Disc Title:
Disc Size: 33947421508 bytes
Protection: AACS
BD-Java: No
BDInfo: 0.5.3

PLAYLIST REPORT:

Name: 00012.MPLS
Length: 0:21:00 (h:m:s)
Size: 695046144 bytes
Total Bitrate: 4,41 Mbps

VIDEO:

Codec Bitrate Description
----- ------- -----------
MPEG-2 Video 3924 kbps 480i / 29,970 fps / 4:3

AUDIO:

Codec Language Bitrate Description
----- -------- ------- -----------
Dolby Digital Audio English 192 kbps 2.0 / 48 kHz / 192 kbps

FILES:

Name Time In Length Size Total Bitrate
---- ------- ------ ---- -------------
00006.M2TS 0:00:00.000 0:03:52.232 129540096 4462
00007.M2TS 0:03:52.232 0:04:25.932 147511296 4438
00008.M2TS 0:08:18.164 0:03:53.266 123144192 4223
00009.M2TS 0:12:11.430 0:04:48.321 160923648 4465
00010.M2TS 0:16:59.752 0:04:00.273 133926912 4459

CHAPTERS:

Number Time In Length Avg Video Rate Max 1-Sec Rate Max 1-Sec Time Max 5-Sec Rate Max 5-Sec Time Max 10Sec Rate Max 10Sec Time Avg Frame Size Max Frame Size Max Frame Time
------ ------- ------ -------------- -------------- -------------- -------------- -------------- -------------- -------------- -------------- -------------- --------------
1 0:00:00.000 0:03:52.232 3972 kbps 5376 kbps 00:02:51.738 4850 kbps 00:02:59.546 4615 kbps 00:02:54.541 16563 bytes 52524 bytes 00:00:00.033
2 0:03:52.232 0:04:25.932 3948 kbps 8942 kbps 00:08:01.447 8333 kbps 00:07:59.445 8131 kbps 00:07:56.142 16465 bytes 115374 bytes 00:05:45.511
3 0:08:18.164 0:03:53.266 3743 kbps 9370 kbps 00:10:31.631 6121 kbps 00:09:02.975 5675 kbps 00:09:00.172 15610 bytes 98127 bytes 00:10:31.697
4 0:12:11.430 0:04:48.321 3974 kbps 6768 kbps 00:16:56.815 5836 kbps 00:15:50.416 5512 kbps 00:15:47.546 16575 bytes 68037 bytes 00:13:51.030
5 0:16:59.752 0:04:00.273 3968 kbps 8648 kbps 00:18:50.362 7178 kbps 00:18:46.692 6384 kbps 00:18:41.787 16552 bytes 105899 bytes 00:18:51.363

STREAM DIAGNOSTICS:

File PID Type Codec Language Seconds Bitrate Bytes Packets
---- --- ---- ----- -------- -------------- -------------- ------------- -----
00006.M2TS 4113 (0x1011) 0x02 MPEG-2 232,099 3974 115286859 630600
00006.M2TS 4352 (0x1100) 0x81 AC3 eng (English) 232,099 192 5574144 36290
00007.M2TS 4113 (0x1011) 0x02 MPEG-2 265,832 3949 131223945 717844
00007.M2TS 4352 (0x1100) 0x81 AC3 eng (English) 265,832 192 6382848 41555
00008.M2TS 4113 (0x1011) 0x02 MPEG-2 233,200 3744 109125808 597102
00008.M2TS 4352 (0x1100) 0x81 AC3 eng (English) 233,200 192 5598720 36450
00009.M2TS 4113 (0x1011) 0x02 MPEG-2 288,255 3975 143223668 783440
00009.M2TS 4352 (0x1100) 0x81 AC3 eng (English) 288,255 192 6920448 45055
00010.M2TS 4113 (0x1011) 0x02 MPEG-2 240,207 3969 119178676 651938
00010.M2TS 4352 (0x1100) 0x81 AC3 eng (English) 240,207 192 5766912 37545[/code]
<---- END FORUMS PASTE ---->

QUICK SUMMARY:

Disc Title:
Disc Size: 33947421508 bytes
Protection: AACS
BD-Java: No
Playlist: 00012.MPLS
Size: 695046144 bytes
Length: 0:21:00
Total Bitrate: 4,41 Mbps
Video: MPEG-2 Video / 3924 kbps / 480i / 29,970 fps / 4:3
Audio: English / Dolby Digital Audio / 2.0 / 48 kHz / 192 kbps

********************
PLAYLIST: 00009.MPLS
********************

<--- BEGIN FORUMS PASTE --->
[code]Total Video
Title Codec Length Movie Size Disc Size Bitrate Bitrate Main Audio Track Secondary Audio Track
----- ------ ------- -------------- -------------- ------- ------- ------------------ ---------------------
00009.MPLS MPEG-2 0:04:48 160923648 33947421508 4,47 3,97 DD AC3 2.0 192Kbps[/code]
[code]DISC INFO:

Disc Title:
Disc Size: 33947421508 bytes
Protection: AACS
BD-Java: No
BDInfo: 0.5.3

PLAYLIST REPORT:

Name: 00009.MPLS
Length: 0:04:48 (h:m:s)
Size: 160923648 bytes
Total Bitrate: 4,47 Mbps

VIDEO:

Codec Bitrate Description
----- ------- -----------
MPEG-2 Video 3974 kbps 480i / 29,970 fps / 4:3

AUDIO:

Codec Language Bitrate Description
----- -------- ------- -----------
Dolby Digital Audio English 192 kbps 2.0 / 48 kHz / 192 kbps

FILES:

Name Time In Length Size Total Bitrate
---- ------- ------ ---- -------------
00009.M2TS 0:00:00.000 0:04:48.321 160923648 4465

CHAPTERS:

Number Time In Length Avg Video Rate Max 1-Sec Rate Max 1-Sec Time Max 5-Sec Rate Max 5-Sec Time Max 10Sec Rate Max 10Sec Time Avg Frame Size Max Frame Size Max Frame Time
------ ------- ------ -------------- -------------- -------------- -------------- -------------- -------------- -------------- -------------- -------------- --------------
1 0:00:00.000 0:04:48.321 3974 kbps 6768 kbps 00:04:45.385 5836 kbps 00:03:38.985 5512 kbps 00:03:36.115 16575 bytes 68037 bytes 00:01:39.599

STREAM DIAGNOSTICS:

File PID Type Codec Language Seconds Bitrate Bytes Packets
---- --- ---- ----- -------- -------------- -------------- ------------- -----
00009.M2TS 4113 (0x1011) 0x02 MPEG-2 288,255 3975 143223668 783440
00009.M2TS 4352 (0x1100) 0x81 AC3 eng (English) 288,255 192 6920448 45055[/code]
<---- END FORUMS PASTE ---->

QUICK SUMMARY:

Disc Title:
Disc Size: 33947421508 bytes
Protection: AACS
BD-Java: No
Playlist: 00009.MPLS
Size: 160923648 bytes
Length: 0:04:48
Total Bitrate: 4,47 Mbps
Video: MPEG-2 Video / 3974 kbps / 480i / 29,970 fps / 4:3
Audio: English / Dolby Digital Audio / 2.0 / 48 kHz / 192 kbps

********************
PLAYLIST: 00007.MPLS
********************

<--- BEGIN FORUMS PASTE --->
[code]Total Video
Title Codec Length Movie Size Disc Size Bitrate Bitrate Main Audio Track Secondary Audio Track
----- ------ ------- -------------- -------------- ------- ------- ------------------ ---------------------
00007.MPLS MPEG-2 0:04:25 147511296 33947421508 4,44 3,95 DD AC3 2.0 192Kbps[/code]
[code]DISC INFO:

Disc Title:
Disc Size: 33947421508 bytes
Protection: AACS
BD-Java: No
BDInfo: 0.5.3

PLAYLIST REPORT:

Name: 00007.MPLS
Length: 0:04:25 (h:m:s)
Size: 147511296 bytes
Total Bitrate: 4,44 Mbps

VIDEO:

Codec Bitrate Description
----- ------- -----------
MPEG-2 Video 3948 kbps 480i / 29,970 fps / 4:3

AUDIO:

Codec Language Bitrate Description
----- -------- ------- -----------
Dolby Digital Audio English 192 kbps 2.0 / 48 kHz / 192 kbps

FILES:

Name Time In Length Size Total Bitrate
---- ------- ------ ---- -------------
00007.M2TS 0:00:00.000 0:04:25.932 147511296 4438

CHAPTERS:

Number Time In Length Avg Video Rate Max 1-Sec Rate Max 1-Sec Time Max 5-Sec Rate Max 5-Sec Time Max 10Sec Rate Max 10Sec Time Avg Frame Size Max Frame Size Max Frame Time
------ ------- ------ -------------- -------------- -------------- -------------- -------------- -------------- -------------- -------------- -------------- --------------
1 0:00:00.000 0:04:25.932 3948 kbps 8942 kbps 00:04:09.215 8333 kbps 00:04:07.213 8131 kbps 00:04:03.910 16465 bytes 115374 bytes 00:01:53.279

STREAM DIAGNOSTICS:

File PID Type Codec Language Seconds Bitrate Bytes Packets
---- --- ---- ----- -------- -------------- -------------- ------------- -----
00007.M2TS 4113 (0x1011) 0x02 MPEG-2 265,832 3949 131223945 717844
00007.M2TS 4352 (0x1100) 0x81 AC3 eng (English) 265,832 192 6382848 41555[/code]
<---- END FORUMS PASTE ---->

QUICK SUMMARY:

Disc Title:
Disc Size: 33947421508 bytes
Protection: AACS
BD-Java: No
Playlist: 00007.MPLS
Size: 147511296 bytes
Length: 0:04:25
Total Bitrate: 4,44 Mbps
Video: MPEG-2 Video / 3948 kbps / 480i / 29,970 fps / 4:3
Audio: English / Dolby Digital Audio / 2.0 / 48 kHz / 192 kbps

********************
PLAYLIST: 00010.MPLS
********************

<--- BEGIN FORUMS PASTE --->
[code]Total Video
Title Codec Length Movie Size Disc Size Bitrate Bitrate Main Audio Track Secondary Audio Track
----- ------ ------- -------------- -------------- ------- ------- ------------------ ---------------------
00010.MPLS MPEG-2 0:04:00 133926912 33947421508 4,46 3,97 DD AC3 2.0 192Kbps[/code]
[code]DISC INFO:

Disc Title:
Disc Size: 33947421508 bytes
Protection: AACS
BD-Java: No
BDInfo: 0.5.3

PLAYLIST REPORT:

Name: 00010.MPLS
Length: 0:04:00 (h:m:s)
Size: 133926912 bytes
Total Bitrate: 4,46 Mbps

VIDEO:

Codec Bitrate Description
----- ------- -----------
MPEG-2 Video 3968 kbps 480i / 29,970 fps / 4:3

AUDIO:

Codec Language Bitrate Description
----- -------- ------- -----------
Dolby Digital Audio English 192 kbps 2.0 / 48 kHz / 192 kbps

FILES:

Name Time In Length Size Total Bitrate
---- ------- ------ ---- -------------
00010.M2TS 0:00:00.000 0:04:00.273 133926912 4459

CHAPTERS:

Number Time In Length Avg Video Rate Max 1-Sec Rate Max 1-Sec Time Max 5-Sec Rate Max 5-Sec Time Max 10Sec Rate Max 10Sec Time Avg Frame Size Max Frame Size Max Frame Time
------ ------- ------ -------------- -------------- -------------- -------------- -------------- -------------- -------------- -------------- -------------- --------------
1 0:00:00.000 0:04:00.273 3968 kbps 8648 kbps 00:01:50.610 7178 kbps 00:01:46.940 6384 kbps 00:01:42.035 16550 bytes 105899 bytes 00:01:51.611

STREAM DIAGNOSTICS:

File PID Type Codec Language Seconds Bitrate Bytes Packets
---- --- ---- ----- -------- -------------- -------------- ------------- -----
00010.M2TS 4113 (0x1011) 0x02 MPEG-2 240,207 3969 119178676 651938
00010.M2TS 4352 (0x1100) 0x81 AC3 eng (English) 240,207 192 5766912 37545[/code]
<---- END FORUMS PASTE ---->

QUICK SUMMARY:

Disc Title:
Disc Size: 33947421508 bytes
Protection: AACS
BD-Java: No
Playlist: 00010.MPLS
Size: 133926912 bytes
Length: 0:04:00
Total Bitrate: 4,46 Mbps
Video: MPEG-2 Video / 3968 kbps / 480i / 29,970 fps / 4:3
Audio: English / Dolby Digital Audio / 2.0 / 48 kHz / 192 kbps

********************
PLAYLIST: 00008.MPLS
********************

<--- BEGIN FORUMS PASTE --->
[code]Total Video
Title Codec Length Movie Size Disc Size Bitrate Bitrate Main Audio Track Secondary Audio Track
----- ------ ------- -------------- -------------- ------- ------- ------------------ ---------------------
00008.MPLS MPEG-2 0:03:53 123144192 33947421508 4,22 3,74 DD AC3 2.0 192Kbps[/code]
[code]DISC INFO:

Disc Title:
Disc Size: 33947421508 bytes
Protection: AACS
BD-Java: No
BDInfo: 0.5.3

PLAYLIST REPORT:

Name: 00008.MPLS
Length: 0:03:53 (h:m:s)
Size: 123144192 bytes
Total Bitrate: 4,22 Mbps

VIDEO:

Codec Bitrate Description
----- ------- -----------
MPEG-2 Video 3743 kbps 480i / 29,970 fps / 4:3

AUDIO:

Codec Language Bitrate Description
----- -------- ------- -----------
Dolby Digital Audio English 192 kbps 2.0 / 48 kHz / 192 kbps

FILES:

Name Time In Length Size Total Bitrate
---- ------- ------ ---- -------------
00008.M2TS 0:00:00.000 0:03:53.266 123144192 4223

CHAPTERS:

Number Time In Length Avg Video Rate Max 1-Sec Rate Max 1-Sec Time Max 5-Sec Rate Max 5-Sec Time Max 10Sec Rate Max 10Sec Time Avg Frame Size Max Frame Size Max Frame Time
------ ------- ------ -------------- -------------- -------------- -------------- -------------- -------------- -------------- -------------- -------------- --------------
1 0:00:00.000 0:03:53.266 3743 kbps 9370 kbps 00:02:13.466 6121 kbps 00:00:44.811 5675 kbps 00:00:42.008 15609 bytes 98127 bytes 00:02:13.533

STREAM DIAGNOSTICS:

File PID Type Codec Language Seconds Bitrate Bytes Packets
---- --- ---- ----- -------- -------------- -------------- ------------- -----
00008.M2TS 4113 (0x1011) 0x02 MPEG-2 233,200 3744 109125808 597102
00008.M2TS 4352 (0x1100) 0x81 AC3 eng (English) 233,200 192 5598720 36450[/code]
<---- END FORUMS PASTE ---->

QUICK SUMMARY:

Disc Title:
Disc Size: 33947421508 bytes
Protection: AACS
BD-Java: No
Playlist: 00008.MPLS
Size: 123144192 bytes
Length: 0:03:53
Total Bitrate: 4,22 Mbps
Video: MPEG-2 Video / 3743 kbps / 480i / 29,970 fps / 4:3
Audio: English / Dolby Digital Audio / 2.0 / 48 kHz / 192 kbps

********************
PLAYLIST: 00006.MPLS
********************

<--- BEGIN FORUMS PASTE --->
[code]Total Video
Title Codec Length Movie Size Disc Size Bitrate Bitrate Main Audio Track Secondary Audio Track
----- ------ ------- -------------- -------------- ------- ------- ------------------ ---------------------
00006.MPLS MPEG-2 0:03:52 129540096 33947421508 4,46 3,97 DD AC3 2.0 192Kbps[/code]
[code]DISC INFO:

Disc Title:
Disc Size: 33947421508 bytes
Protection: AACS
BD-Java: No
BDInfo: 0.5.3

PLAYLIST REPORT:

Name: 00006.MPLS
Length: 0:03:52 (h:m:s)
Size: 129540096 bytes
Total Bitrate: 4,46 Mbps

VIDEO:

Codec Bitrate Description
----- ------- -----------
MPEG-2 Video 3971 kbps 480i / 29,970 fps / 4:3

AUDIO:

Codec Language Bitrate Description
----- -------- ------- -----------
Dolby Digital Audio English 192 kbps 2.0 / 48 kHz / 192 kbps

FILES:

Name Time In Length Size Total Bitrate
---- ------- ------ ---- -------------
00006.M2TS 0:00:00.000 0:03:52.232 129540096 4462

CHAPTERS:

Number Time In Length Avg Video Rate Max 1-Sec Rate Max 1-Sec Time Max 5-Sec Rate Max 5-Sec Time Max 10Sec Rate Max 10Sec Time Avg Frame Size Max Frame Size Max Frame Time
------ ------- ------ -------------- -------------- -------------- -------------- -------------- -------------- -------------- -------------- -------------- --------------
1 0:00:00.000 0:03:52.232 3971 kbps 5376 kbps 00:02:51.738 4850 kbps 00:02:59.546 4615 kbps 00:02:54.541 16564 bytes 52524 bytes 00:00:00.033

STREAM DIAGNOSTICS:

File PID Type Codec Language Seconds Bitrate Bytes Packets
---- --- ---- ----- -------- -------------- -------------- ------------- -----
00006.M2TS 4113 (0x1011) 0x02 MPEG-2 232,099 3974 115286859 630600
00006.M2TS 4352 (0x1100) 0x81 AC3 eng (English) 232,099 192 5574144 36290[/code]
<---- END FORUMS PASTE ---->

QUICK SUMMARY:

Disc Title:
Disc Size: 33947421508 bytes
Protection: AACS
BD-Java: No
Playlist: 00006.MPLS
Size: 129540096 bytes
Length: 0:03:52
Total Bitrate: 4,46 Mbps
Video: MPEG-2 Video / 3971 kbps / 480i / 29,970 fps / 4:3
Audio: English / Dolby Digital Audio / 2.0 / 48 kHz / 192 kbps

********************
PLAYLIST: 00013.MPLS
********************

<--- BEGIN FORUMS PASTE --->
[code]Total Video
Title Codec Length Movie Size Disc Size Bitrate Bitrate Main Audio Track Secondary Audio Track
----- ------ ------- -------------- -------------- ------- ------- ------------------ ---------------------
00013.MPLS MPEG-2 0:16:28 789875520 33947421508 6,39 5,22 DTS 2.0 768Kbps (48kHz/16-bit)[/code]
[code]DISC INFO:

Disc Title:
Disc Size: 33947421508 bytes
Protection: AACS
BD-Java: No
BDInfo: 0.5.3

PLAYLIST REPORT:

Name: 00013.MPLS
Length: 0:16:28 (h:m:s)
Size: 789875520 bytes
Total Bitrate: 6,39 Mbps

VIDEO:

Codec Bitrate Description
----- ------- -----------
MPEG-2 Video 5221 kbps 480i / 29,970 fps / 4:3

AUDIO:

Codec Language Bitrate Description
----- -------- ------- -----------
DTS Audio English 768 kbps 2.0 / 48 kHz / 768 kbps / 16-bit

FILES:

Name Time In Length Size Total Bitrate
---- ------- ------ ---- -------------
00005.M2TS 0:00:00.000 0:08:15.495 372903936 6021
00011.M2TS 0:08:15.495 0:08:13.493 416971584 6760

CHAPTERS:

Number Time In Length Avg Video Rate Max 1-Sec Rate Max 1-Sec Time Max 5-Sec Rate Max 5-Sec Time Max 10Sec Rate Max 10Sec Time Avg Frame Size Max Frame Size Max Frame Time
------ ------- ------ -------------- -------------- -------------- -------------- -------------- -------------- -------------- -------------- -------------- --------------
1 0:00:00.000 0:08:15.495 4867 kbps 8524 kbps 00:07:46.632 6855 kbps 00:07:28.214 6592 kbps 00:07:22.809 20297 bytes 116010 bytes 00:05:01.701
2 0:08:15.495 0:08:13.493 5575 kbps 8878 kbps 00:14:59.331 7928 kbps 00:14:45.484 7663 kbps 00:15:51.517 23257 bytes 113724 bytes 00:08:15.728

STREAM DIAGNOSTICS:

File PID Type Codec Language Seconds Bitrate Bytes Packets
---- --- ---- ----- -------- -------------- -------------- ------------- -----
00005.M2TS 4113 (0x1011) 0x02 MPEG-2 495,362 4868 301435805 1646854
00005.M2TS 4352 (0x1100) 0x82 DTS eng (English) 495,362 768 47567872 278718
00011.M2TS 4113 (0x1011) 0x02 MPEG-2 493,393 5576 343908903 1877633
00011.M2TS 4352 (0x1100) 0x82 DTS eng (English) 493,393 768 47375360 277590[/code]
<---- END FORUMS PASTE ---->

QUICK SUMMARY:

Disc Title:
Disc Size: 33947421508 bytes
Protection: AACS
BD-Java: No
Playlist: 00013.MPLS
Size: 789875520 bytes
Length: 0:16:28
Total Bitrate: 6,39 Mbps
Video: MPEG-2 Video / 5221 kbps / 480i / 29,970 fps / 4:3
Audio: English / DTS Audio / 2.0 / 48 kHz / 768 kbps / 16-bit

********************
PLAYLIST: 00005.MPLS
********************

<--- BEGIN FORUMS PASTE --->
[code]Total Video
Title Codec Length Movie Size Disc Size Bitrate Bitrate Main Audio Track Secondary Audio Track
----- ------ ------- -------------- -------------- ------- ------- ------------------ ---------------------
00005.MPLS MPEG-2 0:08:15 372903936 33947421508 6,02 4,87 DTS 2.0 768Kbps (48kHz/16-bit)[/code]
[code]DISC INFO:

Disc Title:
Disc Size: 33947421508 bytes
Protection: AACS
BD-Java: No
BDInfo: 0.5.3

PLAYLIST REPORT:

Name: 00005.MPLS
Length: 0:08:15 (h:m:s)
Size: 372903936 bytes
Total Bitrate: 6,02 Mbps

VIDEO:

Codec Bitrate Description
----- ------- -----------
MPEG-2 Video 4867 kbps 480i / 29,970 fps / 4:3

AUDIO:

Codec Language Bitrate Description
----- -------- ------- -----------
DTS Audio English 768 kbps 2.0 / 48 kHz / 768 kbps / 16-bit

FILES:

Name Time In Length Size Total Bitrate
---- ------- ------ ---- -------------
00005.M2TS 0:00:00.000 0:08:15.495 372903936 6021

CHAPTERS:

Number Time In Length Avg Video Rate Max 1-Sec Rate Max 1-Sec Time Max 5-Sec Rate Max 5-Sec Time Max 10Sec Rate Max 10Sec Time Avg Frame Size Max Frame Size Max Frame Time
------ ------- ------ -------------- -------------- -------------- -------------- -------------- -------------- -------------- -------------- -------------- --------------
1 0:00:00.000 0:08:15.495 4867 kbps 8524 kbps 00:07:46.632 6855 kbps 00:07:28.214 6592 kbps 00:07:22.809 20299 bytes 116010 bytes 00:05:01.701

STREAM DIAGNOSTICS:

File PID Type Codec Language Seconds Bitrate Bytes Packets
---- --- ---- ----- -------- -------------- -------------- ------------- -----
00005.M2TS 4113 (0x1011) 0x02 MPEG-2 495,362 4868 301435805 1646854
00005.M2TS 4352 (0x1100) 0x82 DTS eng (English) 495,362 768 47567872 278718[/code]
<---- END FORUMS PASTE ---->

QUICK SUMMARY:

Disc Title:
Disc Size: 33947421508 bytes
Protection: AACS
BD-Java: No
Playlist: 00005.MPLS
Size: 372903936 bytes
Length: 0:08:15
Total Bitrate: 6,02 Mbps
Video: MPEG-2 Video / 4867 kbps / 480i / 29,970 fps / 4:3
Audio: English / DTS Audio / 2.0 / 48 kHz / 768 kbps / 16-bit

********************
PLAYLIST: 00011.MPLS
********************

<--- BEGIN FORUMS PASTE --->
[code]Total Video
Title Codec Length Movie Size Disc Size Bitrate Bitrate Main Audio Track Secondary Audio Track
----- ------ ------- -------------- -------------- ------- ------- ------------------ ---------------------
00011.MPLS MPEG-2 0:08:13 416971584 33947421508 6,76 5,58 DTS 2.0 768Kbps (48kHz/16-bit)[/code]
[code]DISC INFO:

Disc Title:
Disc Size: 33947421508 bytes
Protection: AACS
BD-Java: No
BDInfo: 0.5.3

PLAYLIST REPORT:

Name: 00011.MPLS
Length: 0:08:13 (h:m:s)
Size: 416971584 bytes
Total Bitrate: 6,76 Mbps

VIDEO:

Codec Bitrate Description
----- ------- -----------
MPEG-2 Video 5576 kbps 480i / 29,970 fps / 4:3

AUDIO:

Codec Language Bitrate Description
----- -------- ------- -----------
DTS Audio English 768 kbps 2.0 / 48 kHz / 768 kbps / 16-bit

FILES:

Name Time In Length Size Total Bitrate
---- ------- ------ ---- -------------
00011.M2TS 0:00:00.000 0:08:13.493 416971584 6760

CHAPTERS:

Number Time In Length Avg Video Rate Max 1-Sec Rate Max 1-Sec Time Max 5-Sec Rate Max 5-Sec Time Max 10Sec Rate Max 10Sec Time Avg Frame Size Max Frame Size Max Frame Time
------ ------- ------ -------------- -------------- -------------- -------------- -------------- -------------- -------------- -------------- -------------- --------------
1 0:00:00.000 0:08:13.493 5575 kbps 8878 kbps 00:06:43.836 7928 kbps 00:06:29.989 7663 kbps 00:07:36.022 23255 bytes 113724 bytes 00:00:00.233

STREAM DIAGNOSTICS:

File PID Type Codec Language Seconds Bitrate Bytes Packets
---- --- ---- ----- -------- -------------- -------------- ------------- -----
00011.M2TS 4113 (0x1011) 0x02 MPEG-2 493,393 5576 343908903 1877633
00011.M2TS 4352 (0x1100) 0x82 DTS eng (English) 493,393 768 47375360 277590[/code]
<---- END FORUMS PASTE ---->

QUICK SUMMARY:

Disc Title:
Disc Size: 33947421508 bytes
Protection: AACS
BD-Java: No
Playlist: 00011.MPLS
Size: 416971584 bytes
Length: 0:08:13
Total Bitrate: 6,76 Mbps
Video: MPEG-2 Video / 5576 kbps / 480i / 29,970 fps / 4:3
Audio: English / DTS Audio / 2.0 / 48 kHz / 768 kbps / 16-bit

********************
PLAYLIST: 00020.MPLS
********************

<--- BEGIN FORUMS PASTE --->
[code]Total Video
Title Codec Length Movie Size Disc Size Bitrate Bitrate Main Audio Track Secondary Audio Track
----- ------ ------- -------------- -------------- ------- ------- ------------------ ---------------------
00020.MPLS AVC 0:02:39 676147200 33947421508 34,02 29,97 DTS-HD Master 2.0 2228Kbps (48kHz/24-bit)[/code]
[code]DISC INFO:

Disc Title:
Disc Size: 33947421508 bytes
Protection: AACS
BD-Java: No
BDInfo: 0.5.3

PLAYLIST REPORT:

Name: 00020.MPLS
Length: 0:02:39 (h:m:s)
Size: 676147200 bytes
Total Bitrate: 34,02 Mbps

VIDEO:

Codec Bitrate Description
----- ------- -----------
MPEG-4 AVC Video 29971 kbps 1080i / 25 fps / 16:9 / High Profile 4.1

AUDIO:

Codec Language Bitrate Description
----- -------- ------- -----------
DTS-HD Master Audio English 2228 kbps 2.0 / 48 kHz / 2228 kbps / 24-bit (DTS Core: 2.0 / 48 kHz / 1509 kbps / 24-bit)

SUBTITLES:

Codec Language Bitrate Description
----- -------- ------- -----------
Interactive Graphics English 83,486 kbps

FILES:

Name Time In Length Size Total Bitrate
---- ------- ------ ---- -------------
00018.M2TS 0:00:00.000 0:02:39.000 676147200 34020

CHAPTERS:

Number Time In Length Avg Video Rate Max 1-Sec Rate Max 1-Sec Time Max 5-Sec Rate Max 5-Sec Time Max 10Sec Rate Max 10Sec Time Avg Frame Size Max Frame Size Max Frame Time
------ ------- ------ -------------- -------------- -------------- -------------- -------------- -------------- -------------- -------------- -------------- --------------
1 0:00:00.000 0:02:39.000 29971 kbps 33287 kbps 00:00:40.880 31107 kbps 00:00:39.800 30474 kbps 00:00:39.800 149855 bytes 357432 bytes 00:00:03.840

STREAM DIAGNOSTICS:

File PID Type Codec Language Seconds Bitrate Bytes Packets
---- --- ---- ----- -------- -------------- -------------- ------------- -----
00018.M2TS 4113 (0x1011) 0x1B AVC 158,880 29994 595673789 3241731
00018.M2TS 4352 (0x1100) 0x86 DTS-HD MA eng (English) 158,880 2229 44273380 265308
00018.M2TS 5120 (0x1400) 0x91 IGS eng (English) 158,880 84 1659286 9182[/code]
<---- END FORUMS PASTE ---->

QUICK SUMMARY:

Disc Title:
Disc Size: 33947421508 bytes
Protection: AACS
BD-Java: No
Playlist: 00020.MPLS
Size: 676147200 bytes
Length: 0:02:39
Total Bitrate: 34,02 Mbps
Video: MPEG-4 AVC Video / 29971 kbps / 1080i / 25 fps / 16:9 / High Profile 4.1
Audio: English / DTS-HD Master Audio / 2.0 / 48 kHz / 2228 kbps / 24-bit (DTS Core: 2.0 / 48 kHz / 1509 kbps / 24-bit)
Subtitle: English / 83,486 kbps

********************
PLAYLIST: 00021.MPLS
********************

<--- BEGIN FORUMS PASTE --->
[code]Total Video
Title Codec Length Movie Size Disc Size Bitrate Bitrate Main Audio Track Secondary Audio Track
----- ------ ------- -------------- -------------- ------- ------- ------------------ ---------------------
00021.MPLS MPEG-2 0:02:26 184596480 33947421508 10,05 8,73 DTS 2.0 768Kbps (48kHz/16-bit)[/code]
[code]DISC INFO:

Disc Title:
Disc Size: 33947421508 bytes
Protection: AACS
BD-Java: No
BDInfo: 0.5.3

PLAYLIST REPORT:

Name: 00021.MPLS
Length: 0:02:26 (h:m:s)
Size: 184596480 bytes
Total Bitrate: 10,05 Mbps

VIDEO:

Codec Bitrate Description
----- ------- -----------
MPEG-2 Video 8725 kbps 480i / 29,970 fps / 16:9

AUDIO:

Codec Language Bitrate Description
----- -------- ------- -----------
DTS Audio English 768 kbps 2.0 / 48 kHz / 768 kbps / 16-bit

FILES:

Name Time In Length Size Total Bitrate
---- ------- ------ ---- -------------
00019.M2TS 0:00:00.000 0:02:26.980 184596480 10047

CHAPTERS:

Number Time In Length Avg Video Rate Max 1-Sec Rate Max 1-Sec Time Max 5-Sec Rate Max 5-Sec Time Max 10Sec Rate Max 10Sec Time Avg Frame Size Max Frame Size Max Frame Time
------ ------- ------ -------------- -------------- -------------- -------------- -------------- -------------- -------------- -------------- -------------- --------------
1 0:00:00.000 0:02:26.980 8725 kbps 9201 kbps 00:02:01.154 8864 kbps 00:00:51.584 8792 kbps 00:00:46.579 36392 bytes 124797 bytes 00:00:58.992

STREAM DIAGNOSTICS:

File PID Type Codec Language Seconds Bitrate Bytes Packets
---- --- ---- ----- -------- -------------- -------------- ------------- -----
00019.M2TS 4113 (0x1011) 0x02 MPEG-2 146,847 8733 160307159 873805
00019.M2TS 4352 (0x1100) 0x82 DTS eng (English) 146,847 769 14110720 82680[/code]
<---- END FORUMS PASTE ---->

QUICK SUMMARY:

Disc Title:
Disc Size: 33947421508 bytes
Protection: AACS
BD-Java: No
Playlist: 00021.MPLS
Size: 184596480 bytes
Length: 0:02:26
Total Bitrate: 10,05 Mbps
Video: MPEG-2 Video / 8725 kbps / 480i / 29,970 fps / 16:9
Audio: English / DTS Audio / 2.0 / 48 kHz / 768 kbps / 16-bit

********************
PLAYLIST: 00017.MPLS
********************

<--- BEGIN FORUMS PASTE --->
[code]Total Video
Title Codec Length Movie Size Disc Size Bitrate Bitrate Main Audio Track Secondary Audio Track
----- ------ ------- -------------- -------------- ------- ------- ------------------ ---------------------
00017.MPLS AVC 0:00:30 127205376 33947421508 33,92 29,96 DTS-HD Master 2.0 2226Kbps (48kHz/24-bit)[/code]
[code]DISC INFO:

Disc Title:
Disc Size: 33947421508 bytes
Protection: AACS
BD-Java: No
BDInfo: 0.5.3

PLAYLIST REPORT:

Name: 00017.MPLS
Length: 0:00:30 (h:m:s)
Size: 127205376 bytes
Total Bitrate: 33,92 Mbps

VIDEO:

Codec Bitrate Description
----- ------- -----------
MPEG-4 AVC Video 29962 kbps 1080i / 25 fps / 16:9 / High Profile 4.1

AUDIO:

Codec Language Bitrate Description
----- -------- ------- -----------
DTS-HD Master Audio English 2226 kbps 2.0 / 48 kHz / 2226 kbps / 24-bit (DTS Core: 2.0 / 48 kHz / 1509 kbps / 24-bit)

FILES:

Name Time In Length Size Total Bitrate
---- ------- ------ ---- -------------
00015.M2TS 0:00:00.000 0:00:30.000 127205376 33921

CHAPTERS:

Number Time In Length Avg Video Rate Max 1-Sec Rate Max 1-Sec Time Max 5-Sec Rate Max 5-Sec Time Max 10Sec Rate Max 10Sec Time Avg Frame Size Max Frame Size Max Frame Time
------ ------- ------ -------------- -------------- -------------- -------------- -------------- -------------- -------------- -------------- -------------- --------------
1 0:00:00.000 0:00:30.000 29962 kbps 33287 kbps 00:00:01.880 31107 kbps 00:00:00.799 30474 kbps 00:00:00.800 149812 bytes 356927 bytes 00:00:23.040

STREAM DIAGNOSTICS:

File PID Type Codec Language Seconds Bitrate Bytes Packets
---- --- ---- ----- -------- -------------- -------------- ------------- -----
00015.M2TS 4113 (0x1011) 0x1B AVC 29,880 30083 112358695 611474
00015.M2TS 4352 (0x1100) 0x86 DTS-HD MA eng (English) 29,880 2235 8346552 50024[/code]
<---- END FORUMS PASTE ---->

QUICK SUMMARY:

Disc Title:
Disc Size: 33947421508 bytes
Protection: AACS
BD-Java: No
Playlist: 00017.MPLS
Size: 127205376 bytes
Length: 0:00:30
Total Bitrate: 33,92 Mbps
Video: MPEG-4 AVC Video / 29962 kbps / 1080i / 25 fps / 16:9 / High Profile 4.1
Audio: English / DTS-HD Master Audio / 2.0 / 48 kHz / 2226 kbps / 24-bit (DTS Core: 2.0 / 48 kHz / 1509 kbps / 24-bit)


 ·  , , FAQ-
:  [ 28--2011 23:48 ]

  

.torrent

.torrent 164 KB


: 31.62 GB
(hash) : 3b2dde546baad1bc05fa4ca8b71cfc4f805e00f3
··
...

Ayo - Live at the Olympia . !

!