Robben Ford - The Paris Concert torrent

, , - AdBlock. #!


22.14 GB   |    :  6    |    .torrent :  70    |   
1  
   
...
 

Galfimbul

avatar Galfimbul


Robben Ford - The Paris Concert
: Blues
: 1:28:31
: 2010
: This electrifying concert was recorded in May 2001 in the "New Morning" club in Paris, one of the most important European jazz clubs. Accompanied by Louis Pardini (keyboards), Jimmy Earl (bass) and Brannen Temple (drums) Robben Ford showed every facet of his furious guitar playing. With numbers like "Start It Up", "Moonchild Blues", "Deaf, Dumb And Blind" or "You Got Me Knockin'" the virtuoso excelled himself and played blues rock which simply can't be bettered.

:

1. Prison Of Love
2. Just Like It Is
3. Nothing To Nobody
4. Start It Up
5. Moonchild Blues
6. Help The Poor
7. Chevrolet
8. Tired Of Talkin
9. Indianola Blues
10. Deaf, Dumb & Blind
11. Lovin Cup
12. You Got Me Knockin

:
, .
: Blu-ray
: BDMV
: H.264
: DTS
: MPEG-4 AVC Video / 19989 kbps / 1080i / 29,970 fps / 16:9
#1: DTS-HD Master Audio / 5.1 / 48 kHz / 4624 kbps / 24-bit (DTS Core: 5.1 / 48 kHz / 1509 kbps / 24-bit)
#2: LPCM Audio / 2.0 / 48 kHz / 2304 kbps / 24-bit
Disc Title: ROBBEN FORD
Disc Size: 23775488691 bytes
Protection: AACS
BD-Java: No
BDInfo: 0.5.6

Notes:

BDINFO HOME:
Cinema Squid
http://www.cinemasquid.com/blu-ray/tools/bdinfo

INCLUDES FORUMS REPORT FOR:
AVS Forum Blu-ray Audio and Video Specifications Thread
http://www.avsforum.com/avs-vb/showthread.php?t=1155731

********************
PLAYLIST: 00000.MPLS
********************

<--- BEGIN FORUMS PASTE --->

:

Total Video
Title Codec Length Movie Size Disc Size Bitrate Bitrate Main Audio Track Secondary Audio Track
----- ------ ------- -------------- -------------- ------- ------- ------------------ ---------------------
00000.MPLS AVC 1:28:31 18895878144 23775488691 28,46 19,99 DTS-HD Master 5.1 4624Kbps (48kHz/24-bit) LPCM 2.0 2304Kbps (48kHz/24-bit)[/spoiler]
[code]DISC INFO:

Disc Title: ROBBEN FORD
Disc Size: 23775488691 bytes
Protection: AACS
BD-Java: No
BDInfo: 0.5.6

PLAYLIST REPORT:

Name: 00000.MPLS
Length: 1:28:31 (h:m:s)
Size: 18895878144 bytes
Total Bitrate: 28,46 Mbps

VIDEO:

Codec Bitrate Description
----- ------- -----------
MPEG-4 AVC Video 19989 kbps 1080i / 29,970 fps / 16:9 / High Profile 4.1

AUDIO:

Codec Language Bitrate Description
----- -------- ------- -----------
DTS-HD Master Audio English 4624 kbps 5.1 / 48 kHz / 4624 kbps / 24-bit (DTS Core: 5.1 / 48 kHz / 1509 kbps / 24-bit)
LPCM Audio English 2304 kbps 2.0 / 48 kHz / 2304 kbps / 24-bit

FILES:

Name Time In Length Size Total Bitrate
---- ------- ------ ---- -------------
00001.M2TS 0:00:00.000 1:28:31.673 18895878144 28459

CHAPTERS:

Number Time In Length Avg Video Rate Max 1-Sec Rate Max 1-Sec Time Max 5-Sec Rate Max 5-Sec Time Max 10Sec Rate Max 10Sec Time Avg Frame Size Max Frame Size Max Frame Time
------ ------- ------ -------------- -------------- -------------- -------------- -------------- -------------- -------------- -------------- -------------- --------------
1 0:00:00.000 0:03:39.085 20624 kbps 29360 kbps 00:02:39.058 26484 kbps 00:03:03.516 24919 kbps 00:03:00.914 86008 bytes 225712 bytes 00:02:37.457
2 0:03:39.085 0:06:00.259 19356 kbps 31271 kbps 00:07:36.355 28154 kbps 00:07:32.385 24998 kbps 00:07:31.551 80731 bytes 253505 bytes 00:07:36.722
3 0:09:39.345 0:10:58.224 18897 kbps 26344 kbps 00:17:33.318 23737 kbps 00:17:31.517 23111 kbps 00:17:39.525 78817 bytes 224331 bytes 00:17:42.828
4 0:20:37.569 0:06:35.228 19667 kbps 28271 kbps 00:26:33.792 25192 kbps 00:24:11.817 24617 kbps 00:25:15.013 82029 bytes 241462 bytes 00:26:34.926
5 0:27:12.797 0:05:15.481 18766 kbps 30104 kbps 00:29:36.775 28194 kbps 00:27:29.114 27960 kbps 00:27:24.309 78272 bytes 239943 bytes 00:27:21.806
6 0:32:28.279 0:15:27.726 20581 kbps 29429 kbps 00:34:44.182 27583 kbps 00:40:56.921 27212 kbps 00:40:50.448 85841 bytes 258121 bytes 00:46:16.106
7 0:47:56.006 0:05:33.533 21059 kbps 30955 kbps 00:48:32.809 27912 kbps 00:48:28.805 27349 kbps 00:48:25.836 87834 bytes 269308 bytes 00:51:27.751
8 0:53:29.539 0:04:58.131 20697 kbps 28720 kbps 00:56:11.868 27858 kbps 00:56:09.265 27110 kbps 00:56:07.864 86324 bytes 255011 bytes 00:56:12.702
9 0:58:27.670 0:05:41.841 20226 kbps 28020 kbps 01:03:39.615 24815 kbps 01:03:38.748 23647 kbps 01:03:57.767 84360 bytes 220238 bytes 01:02:45.928
10 1:04:09.512 0:06:49.575 20767 kbps 27697 kbps 01:07:19.301 25336 kbps 01:07:17.466 24225 kbps 01:10:04.433 86618 bytes 231077 bytes 01:07:19.702
11 1:10:59.088 0:10:39.472 20313 kbps 29013 kbps 01:13:48.624 27424 kbps 01:13:47.756 26590 kbps 01:13:43.652 84721 bytes 245708 bytes 01:13:45.254
12 1:21:38.560 0:06:53.112 19014 kbps 27478 kbps 01:27:51.366 25376 kbps 01:27:49.597 24471 kbps 01:27:49.597 79311 bytes 246530 bytes 01:28:10.952

STREAM DIAGNOSTICS:

File PID Type Codec Language Seconds Bitrate Bytes Packets
---- --- ---- ----- -------- -------------- -------------- ------------- -----
00001.M2TS 4113 (0x1011) 0x1B AVC 5311,606 19989 13272042928 72223444
00001.M2TS 4352 (0x1100) 0x86 DTS-HD MA eng (English) 5311,606 4624 3070089252 17513269
00001.M2TS 4353 (0x1101) 0x80 LPCM eng (English) 5311,606 2311 1534483928 8501296[/code]
<---- END FORUMS PASTE ---->

QUICK SUMMARY:

Disc Title: ROBBEN FORD
Disc Size: 23775488691 bytes
Protection: AACS
BD-Java: No
Playlist: 00000.MPLS
Size: 18895878144 bytes
Length: 1:28:31
Total Bitrate: 28,46 Mbps
Video: MPEG-4 AVC Video / 19989 kbps / 1080i / 29,970 fps / 16:9 / High Profile 4.1
Audio: English / DTS-HD Master Audio / 5.1 / 48 kHz / 4624 kbps / 24-bit (DTS Core: 5.1 / 48 kHz / 1509 kbps / 24-bit)
Audio: English / LPCM Audio / 2.0 / 48 kHz / 2304 kbps / 24-bit

********************
PLAYLIST: 00001.MPLS
********************

<--- BEGIN FORUMS PASTE --->
[code]Total Video
Title Codec Length Movie Size Disc Size Bitrate Bitrate Main Audio Track Secondary Audio Track
----- ------ ------- -------------- -------------- ------- ------- ------------------ ---------------------
00001.MPLS AVC 0:24:29 4750307328 23775488691 25,85 19,99 LPCM 2.0 2304Kbps (48kHz/24-bit) LPCM 2.0 2304Kbps (48kHz/24-bit)[/code]
[code]DISC INFO:

Disc Title: ROBBEN FORD
Disc Size: 23775488691 bytes
Protection: AACS
BD-Java: No
BDInfo: 0.5.6

PLAYLIST REPORT:

Name: 00001.MPLS
Length: 0:24:29 (h:m:s)
Size: 4750307328 bytes
Total Bitrate: 25,85 Mbps

VIDEO:

Codec Bitrate Description
----- ------- -----------
MPEG-4 AVC Video 19992 kbps 1080i / 29,970 fps / 16:9 / High Profile 4.1

AUDIO:

Codec Language Bitrate Description
----- -------- ------- -----------
LPCM Audio English 2304 kbps 2.0 / 48 kHz / 2304 kbps / 24-bit
LPCM Audio English 2304 kbps 2.0 / 48 kHz / 2304 kbps / 24-bit

FILES:

Name Time In Length Size Total Bitrate
---- ------- ------ ---- -------------
00000.M2TS 0:00:00.000 0:24:29.835 4750307328 25855

CHAPTERS:

Number Time In Length Avg Video Rate Max 1-Sec Rate Max 1-Sec Time Max 5-Sec Rate Max 5-Sec Time Max 10Sec Rate Max 10Sec Time Avg Frame Size Max Frame Size Max Frame Time
------ ------- ------ -------------- -------------- -------------- -------------- -------------- -------------- -------------- -------------- -------------- --------------
1 0:00:00.000 0:03:55.401 20171 kbps 24432 kbps 00:00:46.946 23478 kbps 00:00:45.612 22784 kbps 00:00:43.810 84117 bytes 230153 bytes 00:00:41.041
2 0:03:55.401 0:02:05.892 21031 kbps 24762 kbps 00:04:15.588 23275 kbps 00:04:14.554 22902 kbps 00:04:44.617 87715 bytes 214787 bytes 00:05:31.397
3 0:06:01.294 0:02:44.631 19944 kbps 24230 kbps 00:08:21.801 22718 kbps 00:08:21.601 21791 kbps 00:08:21.601 83185 bytes 226460 bytes 00:08:21.934
4 0:08:45.925 0:07:45.398 20090 kbps 24325 kbps 00:16:13.272 23385 kbps 00:16:12.771 22593 kbps 00:16:12.504 83793 bytes 224924 bytes 00:15:21.520
5 0:16:31.323 0:02:18.037 19460 kbps 22165 kbps 00:18:14.126 21516 kbps 00:18:13.292 21283 kbps 00:18:07.019 81163 bytes 241920 bytes 00:17:07.359
6 0:18:49.361 0:05:40.473 19590 kbps 24152 kbps 00:23:04.182 23506 kbps 00:23:03.181 22687 kbps 00:23:01.947 81715 bytes 335564 bytes 00:24:20.692

STREAM DIAGNOSTICS:

File PID Type Codec Language Seconds Bitrate Bytes Packets
---- --- ---- ----- -------- -------------- -------------- ------------- -----
00000.M2TS 4113 (0x1011) 0x1B AVC 1469,735 19994 3673157240 19988443
00000.M2TS 4352 (0x1100) 0x80 LPCM eng (English) 1469,735 2311 424489792 2351744
00000.M2TS 4353 (0x1101) 0x80 LPCM eng (English) 1469,735 2311 424489792 2351744[/code]
<---- END FORUMS PASTE ---->

QUICK SUMMARY:

Disc Title: ROBBEN FORD
Disc Size: 23775488691 bytes
Protection: AACS
BD-Java: No
Playlist: 00001.MPLS
Size: 4750307328 bytes
Length: 0:24:29
Total Bitrate: 25,85 Mbps
Video: MPEG-4 AVC Video / 19992 kbps / 1080i / 29,970 fps / 16:9 / High Profile 4.1
Audio: English / LPCM Audio / 2.0 / 48 kHz / 2304 kbps / 24-bit
Audio: English / LPCM Audio / 2.0 / 48 kHz / 2304 kbps / 24-bit

********************
PLAYLIST: 00003.MPLS
********************

<--- BEGIN FORUMS PASTE --->
[code]Total Video
Title Codec Length Movie Size Disc Size Bitrate Bitrate Main Audio Track Secondary Audio Track
----- ------ ------- -------------- -------------- ------- ------- ------------------ ---------------------
00003.MPLS AVC 0:00:35 125626368 23775488691 28,69 25,02 DTS-HD Master 5.1 2168Kbps (48kHz/16-bit)[/code]
[code]DISC INFO:

Disc Title: ROBBEN FORD
Disc Size: 23775488691 bytes
Protection: AACS
BD-Java: No
BDInfo: 0.5.6

PLAYLIST REPORT:

Name: 00003.MPLS
Length: 0:00:35 (h:m:s)
Size: 125626368 bytes
Total Bitrate: 28,69 Mbps

VIDEO:

Codec Bitrate Description
----- ------- -----------
MPEG-4 AVC Video 25020 kbps 1080p / 23,976 fps / 16:9 / High Profile 4.1

AUDIO:

Codec Language Bitrate Description
----- -------- ------- -----------
DTS-HD Master Audio English 2168 kbps 5.1 / 48 kHz / 2168 kbps / 16-bit (DTS Core: 5.1 / 48 kHz / 1509 kbps / 16-bit)

FILES:

Name Time In Length Size Total Bitrate
---- ------- ------ ---- -------------
00003.M2TS 0:00:00.000 0:00:35.034 125626368 28686

CHAPTERS:

Number Time In Length Avg Video Rate Max 1-Sec Rate Max 1-Sec Time Max 5-Sec Rate Max 5-Sec Time Max 10Sec Rate Max 10Sec Time Avg Frame Size Max Frame Size Max Frame Time
------ ------- ------ -------------- -------------- -------------- -------------- -------------- -------------- -------------- -------------- -------------- --------------
1 0:00:00.000 0:00:35.034 25020 kbps 28096 kbps 00:00:33.283 25911 kbps 00:00:04.754 25799 kbps 00:00:00.000 130444 bytes 589191 bytes 00:00:05.004

STREAM DIAGNOSTICS:

File PID Type Codec Language Seconds Bitrate Bytes Packets
---- --- ---- ----- -------- -------------- -------------- ------------- -----
00003.M2TS 4113 (0x1011) 0x1B AVC 34,868 25140 109572814 595990
00003.M2TS 4352 (0x1100) 0x86 DTS-HD MA eng (English) 34,868 2178 9494148 57091[/code]
<---- END FORUMS PASTE ---->

QUICK SUMMARY:

Disc Title: ROBBEN FORD
Disc Size: 23775488691 bytes
Protection: AACS
BD-Java: No
Playlist: 00003.MPLS
Size: 125626368 bytes
Length: 0:00:35
Total Bitrate: 28,69 Mbps
Video: MPEG-4 AVC Video / 25020 kbps / 1080p / 23,976 fps / 16:9 / High Profile 4.1
Audio: English / DTS-HD Master Audio / 5.1 / 48 kHz / 2168 kbps / 16-bit (DTS Core: 5.1 / 48 kHz / 1509 kbps / 16-bit)


 ·  , , FAQ-
:  [ 28--2011 23:29 ]

  

.torrent

.torrent 30 KB


: 22.14 GB
(hash) : 30da0dea2f908e5408352f9569862d191242eb66
··
...

Robben Ford - The Paris Concert . !

!