Скачать порно через торрент Jackhammer Отбойный молоток UnionPeer.org бесплатно онлайн HD качество

Скачать новое порно 2015, 2014 новинки через торрент UnionPeer.org

Порно торрент бесплатно ЮнионПир.орг

Если у вас наблюдаются проблемы со скриншотами, переходом по ссылками, скачиванием торрентов - проблемы в блокировщике рекламы AdBlock. #хорошегоДня!


Статистика раздачи
Размер:  1.13 GB   |    Зарегистрирован:  5 месяцев 10 дней   |    .torrent скачан:  55 раз   |   
Раздают:  1  
   
Загрузка...
 
Автор Сообщение

Galfimbul

avatar Galfimbul



Jackhammer
Отбойный молоток

Год производства:
1991 г.
Страна:
US
Жанр:
Classic, Muscle, Oral, Anal Sex, Outdoor, Condoms, Hardcore
Продолжительность:
01:22:31
Студия:
Vivid Man Video
Режиссер:
Patrick Dennis
В ролях:
Andrew Bishop, Chris McKenzie, Grant Fagan, Johnny Rahm, Kent Burk, Sean Hunter
Описание:
ou won''t see this meat loaf on the job! Two hard-bodied construction workers (Sean Hunter and Johnny Rahm) put their big tools into action with "on the job" training - sucking big, hard-ons and plowing tight hot backsides. Johnny converts a homophobic contractor (Chris McKenzie) with hot lips on his root and by drilling his rig into Chris'' virgin lips. And in another part of the construction site, manly Andrew Bishop bumps hot butt and drops a hot load on Sean''s perfect backside. This video delivers a bevy of buff guys hammering it out in brogans.
Качество видео:
DVDRip
Формат видео:
MP4
Видео:
AVC, 720x544, 29.000 fps, 2 065 kb/s
Аудио:
AAC, 44.1 kHz, Lossy, 184 kb/s
Format : MPEG-4
Format profile : Base Media / Version 2
Codec ID : mp42 (mp42)
File size : 1.13 GiB
Duration : 1 h 13 min
Overall bit rate mode : Variable
Overall bit rate : 2 208 kb/s
Codirector : codirector
Production studio : studio
ContentType : Unknown Type
Encoded date : UTC 2017-02-28 14:36:55
Tagged date : UTC 2017-02-28 14:37:16

Video
ID : 1
Format : AVC
Format/Info : Advanced Video Codec
Format profile : Baseline@L3
Format settings, CABAC : No
Format settings, ReFrames : 1 frame
Muxing mode : Container profile=Baseline@4.1
Codec ID : avc1
Codec ID/Info : Advanced Video Coding
Duration : 1 h 13 min
Bit rate : 2 065 kb/s
Width : 720 pixels
Height : 544 pixels
Display aspect ratio : 4:3
Frame rate mode : Constant
Frame rate : 29.970 (30000/1001) FPS
Original frame rate : 29.000 FPS
Color space : YUV
Chroma subsampling : 4:2:0
Bit depth : 8 bits
Scan type : Progressive
Bits/(Pixel*Frame) : 0.176
Stream size : 1.05 GiB (94%)
Language : English
Menus : 3

Audio
ID : 2
Format : AAC
Format/Info : Advanced Audio Codec
Format profile : LC
Codec ID : 40
Duration : 1 h 13 min
Bit rate mode : Variable
Bit rate : 132 kb/s
Maximum bit rate : 184 kb/s
Channel(s) : 2 channels
Channel positions : Front: L R
Sampling rate : 44.1 kHz
Frame rate : 43.066 FPS (1024 spf)
Compression mode : Lossy
Stream size : 70.0 MiB (6%)
Title : Stereo
Language : English
Default : Yes
Alternate group : 1

Menu
ID : 3
Codec ID : text
Duration : 1 h 12 min
Encoded date : UTC 2017-02-28 14:37:16
Tagged date : UTC 2017-02-28 14:37:16
Bit rate mode : CBR
Menu For : 1
00:00:00.000 : Chapter 1
00:03:10.000 : Chapter 2
00:19:35.000 : Chapter 3
00:30:34.000 : Chapter 4
00:36:13.000 : Chapter 5
00:56:49.000 : Chapter 6
01:12:47.000 : Chapter 7


Трекер:  [ 07-Мар-2017 11:30 ]

  

Скачать .torrent

Размер .torrent файла 11 KB


Размер: 1.13 GB
Хэш (hash) релиза: e62ca3b689b0b6a781a8524e0cb8135db9de8926

Еще никто не оставлял запись к записи скачать торрент Jackhammer Отбойный молоток . Будь первым!

!Обратная связь