Larry Carlton Steve Lukather Band - The Paris Concert torrent

, , - AdBlock. #!


23.03 GB   |    :  6 2    |    .torrent :  132    |   
1  
   
...
 

Galfimbul

avatar Galfimbul



Larry Carlton Steve Lukather Band - The Paris Concert
: Jazz, Jazz Fusion
: 1:31:19
: 2010
: , , New Morning 2001 .
If you're not one of the lucky fans who applauded the long-awaited pairing of Larry Carlton and Steve Lukather - Larry, who was named guitarist of the year so often that the title of player emeritus was created for him alone, and Steve (formerly of Toto), a flamboyant guitar hero in his own right - this concert will blow away your reticence. The 2001 get-together of these two masters at their creative peak was an unforgettable experience fuelled by mutual love and respect, freedom of inspiration and the sheer pleasure of playing. Two musicians who have been friends for thirty years toasting each other between numbers on stage at the New Morning: could there be a better reminder that blues and rock find the main source of their energy in the complicity between musicians?

1. The Pump
2. Blues Force
3. It Was Only Yesterday
4. Red House
5. Don't Give It Up
6. Room 335
7. Put It Where You Want It
:
Soundcheck Sketches /
In Conversation with Larry Carlton /
Talking to Luke /
Guitar Tips from Larry to his Fans /
: Blu-ray
: BDMV
: H.264
: DTS
: MPEG-4 AVC Video / 20000 kbps / 1080i / 29.970 fps / 16:9
#1: DTS-HD Master Audio / 5.1 / 48 kHz / 4647 kbps / 24-bit (DTS Core: 5.1 / 48 kHz / 1509 kbps / 24-bit)
#2: LPCM Audio / 2.0 / 48 kHz / 2304 kbps / 24-bit
Disc Title: CARLTON LUKATHER BAND
Disc Size: 24,724,473,993 bytes
Protection: AACS
BD-Java: No
BDInfo: 0.5.6

Notes:

BDINFO HOME:
Cinema Squid
http://www.cinemasquid.com/blu-ray/tools/bdinfo

INCLUDES FORUMS REPORT FOR:
AVS Forum Blu-ray Audio and Video Specifications Thread
http://www.avsforum.com/avs-vb/showthread.php?t=1155731

********************
PLAYLIST: 00000.MPLS
********************

<--- BEGIN FORUMS PASTE --->

:

Total Video
Title Codec Length Movie Size Disc Size Bitrate Bitrate Main Audio Track Secondary Audio Track
----- ------ ------- -------------- -------------- ------- ------- ------------------ ---------------------
00000.MPLS AVC 1:31:19 19,518,081,024 24,724,473,993 28.49 20.00 DTS-HD Master 5.1 4647Kbps (48kHz/24-bit) LPCM 2.0 2304Kbps (48kHz/24-bit)[/spoiler]
[code]DISC INFO:

Disc Title: CARLTON LUKATHER BAND
Disc Size: 24,724,473,993 bytes
Protection: AACS
BD-Java: No
BDInfo: 0.5.6

PLAYLIST REPORT:

Name: 00000.MPLS
Length: 1:31:19 (h:m:s)
Size: 19,518,081,024 bytes
Total Bitrate: 28.49 Mbps

VIDEO:

Codec Bitrate Description
----- ------- -----------
MPEG-4 AVC Video 20000 kbps 1080i / 29.970 fps / 16:9 / High Profile 4.1

AUDIO:

Codec Language Bitrate Description
----- -------- ------- -----------
DTS-HD Master Audio English 4647 kbps 5.1 / 48 kHz / 4647 kbps / 24-bit (DTS Core: 5.1 / 48 kHz / 1509 kbps / 24-bit)
LPCM Audio English 2304 kbps 2.0 / 48 kHz / 2304 kbps / 24-bit

FILES:

Name Time In Length Size Total Bitrate
---- ------- ------ ---- -------------
00001.M2TS 0:00:00.000 1:31:19.841 19,518,081,024 28,494

CHAPTERS:

Number Time In Length Avg Video Rate Max 1-Sec Rate Max 1-Sec Time Max 5-Sec Rate Max 5-Sec Time Max 10Sec Rate Max 10Sec Time Avg Frame Size Max Frame Size Max Frame Time
------ ------- ------ -------------- -------------- -------------- -------------- -------------- -------------- -------------- -------------- -------------- --------------
1 0:00:00.000 0:19:41.513 20,358 kbps 26,540 kbps 00:18:00.612 24,777 kbps 00:06:41.334 24,451 kbps 00:17:40.259 84,906 bytes 233,455 bytes 00:06:03.696
2 0:19:41.513 0:25:25.690 19,575 kbps 26,687 kbps 00:27:28.613 25,059 kbps 00:27:44.696 24,980 kbps 00:25:54.452 81,644 bytes 248,942 bytes 00:27:24.976
3 0:45:07.204 0:11:19.045 18,551 kbps 25,814 kbps 00:56:12.335 24,593 kbps 00:56:11.735 23,172 kbps 00:56:08.898 77,374 bytes 224,630 bytes 00:56:12.936
4 0:56:26.249 0:11:29.822 19,615 kbps 25,975 kbps 01:00:28.124 24,756 kbps 01:00:24.253 23,910 kbps 00:58:47.090 81,813 bytes 235,467 bytes 00:59:29.299
5 1:07:56.072 0:10:25.458 21,522 kbps 26,123 kbps 01:09:31.667 24,848 kbps 01:08:17.927 24,654 kbps 01:13:21.063 89,765 bytes 223,448 bytes 01:14:17.319
6 1:18:21.530 0:06:20.813 20,614 kbps 25,861 kbps 01:20:03.565 24,974 kbps 01:18:58.700 24,307 kbps 01:20:00.162 85,979 bytes 222,968 bytes 01:20:04.199
7 1:24:42.343 0:06:37.497 20,723 kbps 26,473 kbps 01:29:36.871 24,915 kbps 01:28:28.002 24,750 kbps 01:28:26.968 86,441 bytes 232,869 bytes 01:24:49.350

STREAM DIAGNOSTICS:

File PID Type Codec Language Seconds Bitrate Bytes Packets
---- --- ---- ----- -------- -------------- -------------- ------------- -----
00001.M2TS 4113 (0x1011) 0x1B AVC 5479.708 20,000 13,699,431,488 74,549,165
00001.M2TS 4352 (0x1100) 0x86 DTS-HD MA eng (English) 5479.708 4,647 3,182,998,568 18,153,488
00001.M2TS 4353 (0x1101) 0x80 LPCM eng (English) 5479.708 2,311 1,583,051,424 8,770,368[/code]
<---- END FORUMS PASTE ---->

QUICK SUMMARY:

Disc Title: CARLTON LUKATHER BAND
Disc Size: 24,724,473,993 bytes
Protection: AACS
BD-Java: No
Playlist: 00000.MPLS
Size: 19,518,081,024 bytes
Length: 1:31:19
Total Bitrate: 28.49 Mbps
Video: MPEG-4 AVC Video / 20000 kbps / 1080i / 29.970 fps / 16:9 / High Profile 4.1
Audio: English / DTS-HD Master Audio / 5.1 / 48 kHz / 4647 kbps / 24-bit (DTS Core: 5.1 / 48 kHz / 1509 kbps / 24-bit)
Audio: English / LPCM Audio / 2.0 / 48 kHz / 2304 kbps / 24-bit

********************
PLAYLIST: 00002.MPLS
********************

<--- BEGIN FORUMS PASTE --->
[code]Total Video
Title Codec Length Movie Size Disc Size Bitrate Bitrate Main Audio Track Secondary Audio Track
----- ------ ------- -------------- -------------- ------- ------- ------------------ ---------------------
00002.MPLS AVC 0:12:29 1,837,615,104 24,724,473,993 19.61 14.00 LPCM 2.0 2304Kbps (48kHz/24-bit) LPCM 2.0 2304Kbps (48kHz/24-bit)[/code]
[code]DISC INFO:

Disc Title: CARLTON LUKATHER BAND
Disc Size: 24,724,473,993 bytes
Protection: AACS
BD-Java: No
BDInfo: 0.5.6

PLAYLIST REPORT:

Name: 00002.MPLS
Length: 0:12:29 (h:m:s)
Size: 1,837,615,104 bytes
Total Bitrate: 19.61 Mbps

VIDEO:

Codec Bitrate Description
----- ------- -----------
MPEG-4 AVC Video 13998 kbps 1080i / 29.970 fps / 16:9 / High Profile 4.1

AUDIO:

Codec Language Bitrate Description
----- -------- ------- -----------
LPCM Audio English 2304 kbps 2.0 / 48 kHz / 2304 kbps / 24-bit
LPCM Audio English 2304 kbps 2.0 / 48 kHz / 2304 kbps / 24-bit

FILES:

Name Time In Length Size Total Bitrate
---- ------- ------ ---- -------------
00002.M2TS 0:00:00.000 0:12:29.782 1,837,615,104 19,607

CHAPTERS:

Number Time In Length Avg Video Rate Max 1-Sec Rate Max 1-Sec Time Max 5-Sec Rate Max 5-Sec Time Max 10Sec Rate Max 10Sec Time Avg Frame Size Max Frame Size Max Frame Time
------ ------- ------ -------------- -------------- -------------- -------------- -------------- -------------- -------------- -------------- -------------- --------------
1 0:00:00.000 0:12:29.782 13,998 kbps 25,030 kbps 00:12:11.897 23,232 kbps 00:12:07.893 22,458 kbps 00:12:02.888 58,384 bytes 325,231 bytes 00:00:42.008

STREAM DIAGNOSTICS:

File PID Type Codec Language Seconds Bitrate Bytes Packets
---- --- ---- ----- -------- -------------- -------------- ------------- -----
00002.M2TS 4113 (0x1011) 0x1B AVC 749.649 14,001 1,311,949,894 7,143,241
00002.M2TS 4352 (0x1100) 0x80 LPCM eng (English) 749.649 2,314 216,826,708 1,201,256
00002.M2TS 4353 (0x1101) 0x80 LPCM eng (English) 749.649 2,314 216,826,708 1,201,256[/code]
<---- END FORUMS PASTE ---->

QUICK SUMMARY:

Disc Title: CARLTON LUKATHER BAND
Disc Size: 24,724,473,993 bytes
Protection: AACS
BD-Java: No
Playlist: 00002.MPLS
Size: 1,837,615,104 bytes
Length: 0:12:29
Total Bitrate: 19.61 Mbps
Video: MPEG-4 AVC Video / 13998 kbps / 1080i / 29.970 fps / 16:9 / High Profile 4.1
Audio: English / LPCM Audio / 2.0 / 48 kHz / 2304 kbps / 24-bit
Audio: English / LPCM Audio / 2.0 / 48 kHz / 2304 kbps / 24-bit

********************
PLAYLIST: 00001.MPLS
********************

<--- BEGIN FORUMS PASTE --->
[code]Total Video
Title Codec Length Movie Size Disc Size Bitrate Bitrate Main Audio Track Secondary Audio Track
----- ------ ------- -------------- -------------- ------- ------- ------------------ ---------------------
00001.MPLS AVC 0:09:20 1,374,701,568 24,724,473,993 19.61 14.00 LPCM 2.0 2304Kbps (48kHz/24-bit) LPCM 2.0 2304Kbps (48kHz/24-bit)[/code]
[code]DISC INFO:

Disc Title: CARLTON LUKATHER BAND
Disc Size: 24,724,473,993 bytes
Protection: AACS
BD-Java: No
BDInfo: 0.5.6

PLAYLIST REPORT:

Name: 00001.MPLS
Length: 0:09:20 (h:m:s)
Size: 1,374,701,568 bytes
Total Bitrate: 19.61 Mbps

VIDEO:

Codec Bitrate Description
----- ------- -----------
MPEG-4 AVC Video 13995 kbps 1080i / 29.970 fps / 16:9 / High Profile 4.1

AUDIO:

Codec Language Bitrate Description
----- -------- ------- -----------
LPCM Audio English 2304 kbps 2.0 / 48 kHz / 2304 kbps / 24-bit
LPCM Audio English 2304 kbps 2.0 / 48 kHz / 2304 kbps / 24-bit

FILES:

Name Time In Length Size Total Bitrate
---- ------- ------ ---- -------------
00000.M2TS 0:00:00.000 0:09:20.927 1,374,701,568 19,606

CHAPTERS:

Number Time In Length Avg Video Rate Max 1-Sec Rate Max 1-Sec Time Max 5-Sec Rate Max 5-Sec Time Max 10Sec Rate Max 10Sec Time Avg Frame Size Max Frame Size Max Frame Time
------ ------- ------ -------------- -------------- -------------- -------------- -------------- -------------- -------------- -------------- -------------- --------------
1 0:00:00.000 0:09:20.927 13,995 kbps 27,905 kbps 00:02:38.992 21,955 kbps 00:02:35.688 20,611 kbps 00:02:34.988 58,372 bytes 236,498 bytes 00:02:39.826

STREAM DIAGNOSTICS:

File PID Type Codec Language Seconds Bitrate Bytes Packets
---- --- ---- ----- -------- -------------- -------------- ------------- -----
00000.M2TS 4113 (0x1011) 0x1B AVC 560.794 13,999 981,288,452 5,342,901
00000.M2TS 4352 (0x1100) 0x80 LPCM eng (English) 560.794 2,315 162,285,384 899,088
00000.M2TS 4353 (0x1101) 0x80 LPCM eng (English) 560.794 2,315 162,285,384 899,088[/code]
<---- END FORUMS PASTE ---->

QUICK SUMMARY:

Disc Title: CARLTON LUKATHER BAND
Disc Size: 24,724,473,993 bytes
Protection: AACS
BD-Java: No
Playlist: 00001.MPLS
Size: 1,374,701,568 bytes
Length: 0:09:20
Total Bitrate: 19.61 Mbps
Video: MPEG-4 AVC Video / 13995 kbps / 1080i / 29.970 fps / 16:9 / High Profile 4.1
Audio: English / LPCM Audio / 2.0 / 48 kHz / 2304 kbps / 24-bit
Audio: English / LPCM Audio / 2.0 / 48 kHz / 2304 kbps / 24-bit

********************
PLAYLIST: 00005.MPLS
********************

<--- BEGIN FORUMS PASTE --->
[code]Total Video
Title Codec Length Movie Size Disc Size Bitrate Bitrate Main Audio Track Secondary Audio Track
----- ------ ------- -------------- -------------- ------- ------- ------------------ ---------------------
00005.MPLS AVC 0:06:59 1,027,829,760 24,724,473,993 19.61 14.00 LPCM 2.0 2304Kbps (48kHz/24-bit) LPCM 2.0 2304Kbps (48kHz/24-bit)[/code]
[code]DISC INFO:

Disc Title: CARLTON LUKATHER BAND
Disc Size: 24,724,473,993 bytes
Protection: AACS
BD-Java: No
BDInfo: 0.5.6

PLAYLIST REPORT:

Name: 00005.MPLS
Length: 0:06:59 (h:m:s)
Size: 1,027,829,760 bytes
Total Bitrate: 19.61 Mbps

VIDEO:

Codec Bitrate Description
----- ------- -----------
MPEG-4 AVC Video 13997 kbps 1080i / 29.970 fps / 16:9 / High Profile 4.1

AUDIO:

Codec Language Bitrate Description
----- -------- ------- -----------
LPCM Audio English 2304 kbps 2.0 / 48 kHz / 2304 kbps / 24-bit
LPCM Audio English 2304 kbps 2.0 / 48 kHz / 2304 kbps / 24-bit

FILES:

Name Time In Length Size Total Bitrate
---- ------- ------ ---- -------------
00007.M2TS 0:00:00.000 0:06:59.285 1,027,829,760 19,611

CHAPTERS:

Number Time In Length Avg Video Rate Max 1-Sec Rate Max 1-Sec Time Max 5-Sec Rate Max 5-Sec Time Max 10Sec Rate Max 10Sec Time Avg Frame Size Max Frame Size Max Frame Time
------ ------- ------ -------------- -------------- -------------- -------------- -------------- -------------- -------------- -------------- -------------- --------------
1 0:00:00.000 0:06:58.151 14,026 kbps 21,102 kbps 00:00:11.511 19,426 kbps 00:00:09.342 17,898 kbps 00:00:06.072 58,497 bytes 231,279 bytes 00:04:06.012
2 0:06:58.151 0:00:01.134 3,136 kbps 2,823 kbps 00:06:58.251 0 kbps 00:00:00.000 0 kbps 00:00:00.000 13,476 bytes 119,911 bytes 00:06:59.252

STREAM DIAGNOSTICS:

File PID Type Codec Language Seconds Bitrate Bytes Packets
---- --- ---- ----- -------- -------------- -------------- ------------- -----
00007.M2TS 4113 (0x1011) 0x1B AVC 419.152 14,001 733,583,818 3,994,238
00007.M2TS 4352 (0x1100) 0x80 LPCM eng (English) 419.152 2,317 121,379,752 672,464
00007.M2TS 4353 (0x1101) 0x80 LPCM eng (English) 419.152 2,317 121,379,752 672,464[/code]
<---- END FORUMS PASTE ---->

QUICK SUMMARY:

Disc Title: CARLTON LUKATHER BAND
Disc Size: 24,724,473,993 bytes
Protection: AACS
BD-Java: No
Playlist: 00005.MPLS
Size: 1,027,829,760 bytes
Length: 0:06:59
Total Bitrate: 19.61 Mbps
Video: MPEG-4 AVC Video / 13997 kbps / 1080i / 29.970 fps / 16:9 / High Profile 4.1
Audio: English / LPCM Audio / 2.0 / 48 kHz / 2304 kbps / 24-bit
Audio: English / LPCM Audio / 2.0 / 48 kHz / 2304 kbps / 24-bit

********************
PLAYLIST: 00006.MPLS
********************

<--- BEGIN FORUMS PASTE --->
[code]Total Video
Title Codec Length Movie Size Disc Size Bitrate Bitrate Main Audio Track Secondary Audio Track
----- ------ ------- -------------- -------------- ------- ------- ------------------ ---------------------
00006.MPLS AVC 0:06:21 836,253,696 24,724,473,993 17.53 12.00 LPCM 2.0 2304Kbps (48kHz/24-bit) LPCM 2.0 2304Kbps (48kHz/24-bit)[/code]
[code]DISC INFO:

Disc Title: CARLTON LUKATHER BAND
Disc Size: 24,724,473,993 bytes
Protection: AACS
BD-Java: No
BDInfo: 0.5.6

PLAYLIST REPORT:

Name: 00006.MPLS
Length: 0:06:21 (h:m:s)
Size: 836,253,696 bytes
Total Bitrate: 17.53 Mbps

VIDEO:

Codec Bitrate Description
----- ------- -----------
MPEG-4 AVC Video 12000 kbps 1080i / 29.970 fps / 16:9 / High Profile 4.1

AUDIO:

Codec Language Bitrate Description
----- -------- ------- -----------
LPCM Audio English 2304 kbps 2.0 / 48 kHz / 2304 kbps / 24-bit
LPCM Audio English 2304 kbps 2.0 / 48 kHz / 2304 kbps / 24-bit

FILES:

Name Time In Length Size Total Bitrate
---- ------- ------ ---- -------------
00008.M2TS 0:00:00.000 0:06:21.681 836,253,696 17,528

CHAPTERS:

Number Time In Length Avg Video Rate Max 1-Sec Rate Max 1-Sec Time Max 5-Sec Rate Max 5-Sec Time Max 10Sec Rate Max 10Sec Time Avg Frame Size Max Frame Size Max Frame Time
------ ------- ------ -------------- -------------- -------------- -------------- -------------- -------------- -------------- -------------- -------------- --------------
1 0:00:00.000 0:06:21.681 12,000 kbps 17,536 kbps 00:03:18.731 16,477 kbps 00:03:14.661 15,609 kbps 00:03:11.424 50,048 bytes 173,792 bytes 00:05:36.936

STREAM DIAGNOSTICS:

File PID Type Codec Language Seconds Bitrate Bytes Packets
---- --- ---- ----- -------- -------------- -------------- ------------- -----
00008.M2TS 4113 (0x1011) 0x1B AVC 381.548 12,004 572,500,330 3,118,054
00008.M2TS 4352 (0x1100) 0x80 LPCM eng (English) 381.548 2,317 110,519,428 612,296
00008.M2TS 4353 (0x1101) 0x80 LPCM eng (English) 381.548 2,317 110,519,428 612,296[/code]
<---- END FORUMS PASTE ---->

QUICK SUMMARY:

Disc Title: CARLTON LUKATHER BAND
Disc Size: 24,724,473,993 bytes
Protection: AACS
BD-Java: No
Playlist: 00006.MPLS
Size: 836,253,696 bytes
Length: 0:06:21
Total Bitrate: 17.53 Mbps
Video: MPEG-4 AVC Video / 12000 kbps / 1080i / 29.970 fps / 16:9 / High Profile 4.1
Audio: English / LPCM Audio / 2.0 / 48 kHz / 2304 kbps / 24-bit
Audio: English / LPCM Audio / 2.0 / 48 kHz / 2304 kbps / 24-bit

********************
PLAYLIST: 00003.MPLS
********************

<--- BEGIN FORUMS PASTE --->
[code]Total Video
Title Codec Length Movie Size Disc Size Bitrate Bitrate Main Audio Track Secondary Audio Track
----- ------ ------- -------------- -------------- ------- ------- ------------------ ---------------------
00003.MPLS AVC 0:00:35 125,626,368 24,724,473,993 28.69 25.02 DTS-HD Master 5.1 2168Kbps (48kHz/16-bit)[/code]
[code]DISC INFO:

Disc Title: CARLTON LUKATHER BAND
Disc Size: 24,724,473,993 bytes
Protection: AACS
BD-Java: No
BDInfo: 0.5.6

PLAYLIST REPORT:

Name: 00003.MPLS
Length: 0:00:35 (h:m:s)
Size: 125,626,368 bytes
Total Bitrate: 28.69 Mbps

VIDEO:

Codec Bitrate Description
----- ------- -----------
MPEG-4 AVC Video 25020 kbps 1080p / 23.976 fps / 16:9 / High Profile 4.1

AUDIO:

Codec Language Bitrate Description
----- -------- ------- -----------
DTS-HD Master Audio English 2168 kbps 5.1 / 48 kHz / 2168 kbps / 16-bit (DTS Core: 5.1 / 48 kHz / 1509 kbps / 16-bit)

FILES:

Name Time In Length Size Total Bitrate
---- ------- ------ ---- -------------
00003.M2TS 0:00:00.000 0:00:35.034 125,626,368 28,686

CHAPTERS:

Number Time In Length Avg Video Rate Max 1-Sec Rate Max 1-Sec Time Max 5-Sec Rate Max 5-Sec Time Max 10Sec Rate Max 10Sec Time Avg Frame Size Max Frame Size Max Frame Time
------ ------- ------ -------------- -------------- -------------- -------------- -------------- -------------- -------------- -------------- -------------- --------------
1 0:00:00.000 0:00:35.034 25,020 kbps 28,096 kbps 00:00:33.283 25,911 kbps 00:00:04.754 25,799 kbps 00:00:00.000 130,444 bytes 589,191 bytes 00:00:05.004

STREAM DIAGNOSTICS:

File PID Type Codec Language Seconds Bitrate Bytes Packets
---- --- ---- ----- -------- -------------- -------------- ------------- -----
00003.M2TS 4113 (0x1011) 0x1B AVC 34.868 25,140 109,572,814 595,990
00003.M2TS 4352 (0x1100) 0x86 DTS-HD MA eng (English) 34.868 2,178 9,494,148 57,091[/code]
<---- END FORUMS PASTE ---->

QUICK SUMMARY:

Disc Title: CARLTON LUKATHER BAND
Disc Size: 24,724,473,993 bytes
Protection: AACS
BD-Java: No
Playlist: 00003.MPLS
Size: 125,626,368 bytes
Length: 0:00:35
Total Bitrate: 28.69 Mbps
Video: MPEG-4 AVC Video / 25020 kbps / 1080p / 23.976 fps / 16:9 / High Profile 4.1
Audio: English / DTS-HD Master Audio / 5.1 / 48 kHz / 2168 kbps / 16-bit (DTS Core: 5.1 / 48 kHz / 1509 kbps / 16-bit)


 ·  , , FAQ-
:  [ 28--2011 23:11 ]

  

.torrent

.torrent 34 KB


: 23.03 GB
(hash) : 2541a6630b8171c804440b3151ed31edb5eaffbf
··
...

Larry Carlton Steve Lukather Band - The Paris Concert . !

!