Скачать через торрент Молодёжка Сезон: 4 Фильм бесплатно в хорошем качестве torrent

Скачивайте на UnionPeer.org фильмы через торрент без регистрации. Новинки кино в хорошем качестве через торрент. На UnionPeer.org можно скачать через торрент фильмы 2014 и 2015 годов. Самые новые фильмы.

Скачать торрент Молодёжка Сезон: 4 бесплатно через .torrent фильм мультфильм сериал

Статистика раздачи
Размер:  16.4 GB   |    Зарегистрирован:  17 дней   |    .torrent скачан:  162 раза   |   
Раздают:  2   Качают:  2  
   
 
Автор Сообщение

Galfimbul

avatar Galfimbul


Молодежка-4

Год выпуска: 2016
Производство: Россия, ООО Арт Пикчерс Вижн при поддержке КХЛ
Жанр: Драма, спорт
Продолжительность: 00:47:00
Субтитры: Нет
Режиссёр: Сергей Арланов
В ролях: Денис Никифоров, Андрей Мерзликин, Михаил Жигалов, Фёдор Бондарчук, Сергей Габриэлян, Владимир Зайцев, Сергей Комаров (II), Анатолий Кот, Анатолий Лобоцкий, Ксения Лаврова-Глинка, Серафима Низовская, Валентина Ананьина, Макар Запорожский, Александр Соколовский, Влад Канопка, Илья Коробко, Игорь Огурцов, Иван Жвакин, Анна Михайловская, Мария Иващенко, Иван Мулин, Иван Дубровский, Матвей Зубалевич, Валерия Гладилина, Юлия Маргулис, Мария Пирогова, Вадим Андреев
Описание: «Молодежка» — сериал о хоккейной команде «Медведи», которая никак не может выбиться в лидеры своей лиги. Все меняется с приходом нового тренера — Сергея Макеева, в прошлом блестящего игрока, отказавшегося от профессионального спорта из-за травмы. Макееву нелегко вести ребят к победе, ведь молодые люди не только желают строить карьеру, но и имеют бурную личную жизнь. Однако тренер все-таки делает из аутсайдеров сплоченную и достойную команду победителей. С каждым сезоном игроки взрослеют и приближаются к серьезному, «настоящему» хоккею. Матчи становятся все более захватывающими, а жизнь за пределами площадки — все сложнее. 3 сезон сериала «Молодежка», как и предыдущий, будет полон сюрпризов и перемен: в команде появятся новые игроки и тренер-иностранец. Как сложатся его отношения с Сергеем Макеевым и кто теперь играет за «Медведей», узнает тот, кто будет смотреть новый сезон «Молодежки». Сериал, впрочем, не только о спорте, но и о любви, дружбе, выборе своего пути. Поэтому в новых сериях можно будет увидеть личностное развитие любимых персонажей и новых героев. Одни из них станут родителями, другие поймут, что настало время что-то менять, а некоторые проявят себя с неожиданной стороны.
Релиз группа
Сэмпл
Качество: WEBRip
Формат: AVI
Видео кодек: XviD
Аудио кодек: AC3
Видео: 720x400 (16:9), 25.000 fps, XviD build 73, 1639 Kbps, 0.228 Bits/Pixel
Аудио: 48 kHz, AC3 Dolby Digital, 2 ch, 192 Kbps
General
Complete name : \\server\d\раздачи\Moldegka.4.2016.WEB-DLRip.RG.Russkie.serialy.&.Files-x\02.Moldegka.4.2016.WEB-DLRip.RG.Russkie.serialy.&.Files-x.avi
Format : AVI
Format/Info : Audio Video Interleave
File size : 600 MiB
Duration : 47 min 33 s
Overall bit rate : 1 764 kb/s
Writing application : VirtualDubMod 1.5.10.3 | www.virtualdub-fr.org || (build 2550/release)
Writing library : VirtualDubMod build 2550/release

Video
ID : 0
Format : MPEG-4 Visual
Format profile : Advanced Simple@L5
Format settings, BVOP : 1
Format settings, QPel : No
Format settings, GMC : No warppoints
Format settings, Matrix : Custom
Codec ID : XVID
Codec ID/Hint : XviD
Duration : 47 min 33 s
Bit rate : 1 562 kb/s
Width : 720 pixels
Height : 400 pixels
Display aspect ratio : 16:9
Frame rate : 25.000 FPS
Color space : YUV
Chroma subsampling : 4:2:0
Bit depth : 8 bits
Scan type : Progressive
Compression mode : Lossy
Bits/(Pixel*Frame) : 0.217
Stream size : 531 MiB (89%)
Writing library : XviD 73

Audio
ID : 1
Format : AC-3
Format/Info : Audio Coding 3
Mode extension : CM (complete main)
Format settings, Endianness : Big
Codec ID : 2000
Duration : 47 min 33 s
Bit rate mode : Constant
Bit rate : 192 kb/s
Channel(s) : 2 channels
Channel positions : Front: L R
Sampling rate : 48.0 kHz
Frame rate : 31.250 FPS (1536 spf)
Bit depth : 16 bits
Compression mode : Lossy
Stream size : 65.3 MiB (11%)
Alignment : Split accross interleaves
Interleave, duration : 40 ms (1.00 video frame)
Interleave, preload duratio : 500 ms
Внимание! Раздача ведётся путём добавления новых серий
Внимание! Раздача ведётся путём добавления новых серий; при каждом добавлении создётся новый торрент.
Чтобы начать докачку новой серии, пользователям необходимо сделать следующее:
1) остановить скачивание
2) удалить старый торрент у себя из клиента (старые серии удалять не надо)
3) скачать новый торрент и запустить его у себя в клиенте вместо старого, при этом указать клиенту путь в старую папку куда и должно происходить скачивание новых серий.
Ваш клиент при этом должен произвести хеширование (проверку) старой папки (если не производит сам - помогите ему сделать это), и будет докачивать только те серии которых у вас ещё нет. Старые серии при этом не удаляются, а продолжают раздаваться!
Eсли вы уже удалили старые серии, то предотвратить повторную закачку старых серий можно, отжав галочку в соответствовавших местах при запуске нового торрента.


Трекер:  [ 07-Мар-2017 03:30 ]

  

Скачать .torrent

Размер .torrent файла 85 KB


Размер: 16.4 GB
Хэш (hash) релиза: bbbca53dd3bb9336b6e7f638b5f66c87697d564e
Подписка на обновления:

Еще никто не оставлял запись к записи скачать торрент Молодёжка Сезон: 4 . Будь первым!

!Обратная связь