Joe Bonamassa - Live from the Royal Albert Hall torrent

, , - AdBlock. #!


32.15 GB   |    :  6    |    .torrent :  112    |   
1  
   
...
 

Galfimbul

avatar Galfimbul



Joe Bonamassa - Live from the Royal Albert Hall

: Blues
: 02:12
: 2010

: 4 2009.
.

:
1.The Road to Royal Albert Hall
2. Django
3. The Ballad Of John Henry
4. So It's Like That
5. Last Kiss
6. So Many Roads
7. Stop!
8. Introducing Eric Clapton
9. Further On Up The Road
10. High Water Everywhere
11. Sloe Gin
12. Intermission
13. "I first met B.B. King ..."
14. Lonesome Road Blues
15. Happier Times
16. Introducing Paul Jones
17. Your Funeral, My Trial
18. Blues Deluxe
19. Story Of A Quarryman
20. The Great Flood
21. Just Got Paid
22. Mountain Time
23. Asking Around For You
:
Woke Up Dreaming (Extra performance from the Royal Albert Hall concert)
The Bus Interview (Joe talks about the concert songs and demonstrates his guitar technique and influences)

. :
:
Joe Bonamassa - guitar and vocals
Rick Melick - keyboards, tambourine, backing vocal
Carmine Rojas - bass guitar
Bogie Bowles and Anton Fig - drums
Lee Thornburg - brass arrangements and trumpet
Sean Freeman - saxophone
Mike Feltham - trombone
Special guest:
Eric Clapton - guitar and vocals
Paul Jones - harmonica

: Blu-ray
: BDMV
: H.264
: DTS
: MPEG-4 AVC / 1920*1080p / 23,976 fps / 16:9 / ~19999 kbps
#1: DTS-HD MA / 5.1 / 48 kHz / 4610 kbps / 24-bit (DTS Core: 5.1 / 48 kHz / 1509 kbps / 24-bit)
#2: DTS-HD MA / 2.0 / 48 kHz / 2262 kbps / 24-bit (DTS Core: 2.0 / 48 kHz / 1509 kbps / 24-bit)
Disc Title:
Disc Size: 34524399906 bytes
Protection: AACS
BD-Java: No
BDInfo: 0.5.3

Notes:

BDINFO HOME:
Cinema Squid
http://www.cinemasquid.com/blu-ray/tools/bdinfo

INCLUDES FORUMS REPORT FOR:
AVS Forum Blu-ray Audio and Video Specifications Thread
http://www.avsforum.com/avs-vb/showthread.php?t=1155731

********************
PLAYLIST: 00004.MPLS
********************

<--- BEGIN FORUMS PASTE --->

:

Total Video
Title Codec Length Movie Size Disc Size Bitrate Bitrate Main Audio Track Secondary Audio Track
----- ------ ------- -------------- -------------- ------- ------- ------------------ ---------------------
00004.MPLS AVC 2:12:05 28321701888 34524399906 28,59 20,00 DTS-HD Master 5.1 4610Kbps (48kHz/24-bit) DTS-HD Master 2.0 2262Kbps (48kHz/24-bit)[/spoiler]
[code]DISC INFO:

Disc Title:
Disc Size: 34524399906 bytes
Protection: AACS
BD-Java: No
BDInfo: 0.5.3

PLAYLIST REPORT:

Name: 00004.MPLS
Length: 2:12:05 (h:m:s)
Size: 28321701888 bytes
Total Bitrate: 28,59 Mbps

VIDEO:

Codec Bitrate Description
----- ------- -----------
MPEG-4 AVC Video 19999 kbps 1080p / 23,976 fps / 16:9 / High Profile 4.1

AUDIO:

Codec Language Bitrate Description
----- -------- ------- -----------
DTS-HD Master Audio English 4610 kbps 5.1 / 48 kHz / 4610 kbps / 24-bit (DTS Core: 5.1 / 48 kHz / 1509 kbps / 24-bit)
DTS-HD Master Audio English 2262 kbps 2.0 / 48 kHz / 2262 kbps / 24-bit (DTS Core: 2.0 / 48 kHz / 1509 kbps / 24-bit)

FILES:

Name Time In Length Size Total Bitrate
---- ------- ------ ---- -------------
00005.M2TS 0:00:00.000 0:56:04.402 12034830336 28617
00006.M2TS 0:56:04.402 1:16:00.597 16286871552 28570

CHAPTERS:

Number Time In Length Avg Video Rate Max 1-Sec Rate Max 1-Sec Time Max 5-Sec Rate Max 5-Sec Time Max 10Sec Rate Max 10Sec Time Avg Frame Size Max Frame Size Max Frame Time
------ ------- ------ -------------- -------------- -------------- -------------- -------------- -------------- -------------- -------------- -------------- --------------
1 0:00:00.000 0:02:39.826 18784 kbps 35883 kbps 00:01:17.660 31279 kbps 00:01:14.574 28480 kbps 00:01:15.325 97907 bytes 473167 bytes 00:00:58.475
2 0:02:39.826 0:03:27.749 19445 kbps 30760 kbps 00:05:27.910 26800 kbps 00:03:43.932 24398 kbps 00:03:40.261 101376 bytes 415292 bytes 00:04:13.378
3 0:06:07.575 0:06:47.990 20378 kbps 34128 kbps 00:12:39.800 27772 kbps 00:10:18.326 25828 kbps 00:12:39.800 106243 bytes 420494 bytes 00:12:49.518
4 0:12:55.566 0:02:56.217 20693 kbps 34475 kbps 00:15:44.860 28669 kbps 00:13:57.753 25599 kbps 00:13:57.753 107886 bytes 418963 bytes 00:15:44.902
5 0:15:51.784 0:07:17.854 19926 kbps 32301 kbps 00:20:51.458 29129 kbps 00:20:51.208 27402 kbps 00:20:48.747 103883 bytes 429358 bytes 00:16:08.968
6 0:23:09.638 0:06:21.464 19355 kbps 31926 kbps 00:26:53.236 27858 kbps 00:26:50.275 25736 kbps 00:24:28.508 100906 bytes 453854 bytes 00:25:23.647
7 0:29:31.102 0:05:42.216 19732 kbps 31549 kbps 00:32:23.441 26778 kbps 00:32:47.507 25342 kbps 00:32:43.962 102875 bytes 480819 bytes 00:31:26.509
8 0:35:13.319 0:01:18.745 21143 kbps 29142 kbps 00:36:18.217 26244 kbps 00:36:15.339 25158 kbps 00:36:10.251 110232 bytes 431198 bytes 00:35:19.867
9 0:36:32.064 0:05:38.463 19648 kbps 33857 kbps 00:41:57.556 30157 kbps 00:41:53.636 29235 kbps 00:41:06.630 102434 bytes 414262 bytes 00:40:32.680
10 0:42:10.527 0:05:07.724 21299 kbps 34689 kbps 00:45:20.551 31306 kbps 00:45:19.007 30910 kbps 00:45:18.757 111043 bytes 437674 bytes 00:47:12.913
11 0:47:18.252 0:08:23.836 20513 kbps 36623 kbps 00:52:33.525 32104 kbps 00:52:30.856 29414 kbps 00:54:01.529 106945 bytes 416750 bytes 00:54:10.997
12 0:55:42.088 0:00:22.313 9849 kbps 19923 kbps 00:55:47.719 16770 kbps 00:55:43.840 13471 kbps 00:55:42.630 51350 bytes 328716 bytes 00:55:48.094
13 0:56:04.402 0:01:19.996 17890 kbps 29951 kbps 00:57:23.064 27568 kbps 00:57:19.394 24395 kbps 00:57:14.055 93271 bytes 438397 bytes 00:57:09.217
14 0:57:24.399 0:04:35.858 20677 kbps 34884 kbps 00:58:09.235 29041 kbps 00:58:05.899 24754 kbps 00:58:06.024 107799 bytes 410088 bytes 01:00:03.391
15 1:02:00.258 0:06:51.953 21750 kbps 34449 kbps 01:05:32.845 28690 kbps 01:02:24.949 28408 kbps 01:02:24.740 113395 bytes 403429 bytes 01:08:36.946
16 1:08:52.211 0:01:00.101 21458 kbps 31185 kbps 01:09:51.312 25386 kbps 01:09:47.308 23711 kbps 01:09:33.419 111872 bytes 373340 bytes 01:09:51.020
17 1:09:52.313 0:04:16.839 19589 kbps 31863 kbps 01:09:57.943 25252 kbps 01:09:53.939 23467 kbps 01:12:07.990 102126 bytes 424871 bytes 01:09:57.985
18 1:14:09.153 0:09:15.805 20677 kbps 32501 kbps 01:20:34.371 26613 kbps 01:16:21.159 25020 kbps 01:20:13.600 107802 bytes 424234 bytes 01:23:20.036
19 1:23:24.958 0:05:18.693 21700 kbps 36342 kbps 01:25:43.012 28985 kbps 01:24:08.960 27519 kbps 01:25:04.557 113132 bytes 417268 bytes 01:27:25.323
20 1:28:43.651 0:08:05.776 19649 kbps 33961 kbps 01:36:40.794 28047 kbps 01:36:36.832 26847 kbps 01:36:33.829 102440 bytes 468786 bytes 01:34:14.148
21 1:36:49.428 0:11:27.478 21931 kbps 35250 kbps 01:47:51.798 29144 kbps 01:40:44.788 27784 kbps 01:44:22.047 114339 bytes 460899 bytes 01:46:30.467
22 1:48:16.907 0:10:52.943 18543 kbps 35955 kbps 01:58:43.783 29476 kbps 01:58:40.530 26679 kbps 01:48:44.351 96675 bytes 414888 bytes 01:49:19.261
23 1:59:09.851 0:11:01.577 20160 kbps 32313 kbps 02:09:42.858 28739 kbps 02:09:46.862 28436 kbps 02:09:42.858 105103 bytes 430142 bytes 02:05:37.655
24 2:10:11.428 0:01:53.571 2790 kbps 28961 kbps 02:10:12.304 13523 kbps 02:10:11.428 9364 kbps 02:10:11.428 14552 bytes 451774 bytes 02:10:13.263

STREAM DIAGNOSTICS:

File PID Type Codec Language Seconds Bitrate Bytes Packets
---- --- ---- ----- -------- -------------- -------------- ------------- -----
00005.M2TS 4113 (0x1011) 0x1B AVC 3364,236 20001 8410860611 45758483
00005.M2TS 4352 (0x1100) 0x86 DTS-HD MA eng (English) 3364,236 2272 955264692 5714609
00005.M2TS 4353 (0x1101) 0x86 DTS-HD MA eng (English) 3364,236 4625 1945041284 11095569
00006.M2TS 4113 (0x1011) 0x1B AVC 4560,514 19999 11400962144 62025695
00006.M2TS 4352 (0x1100) 0x86 DTS-HD MA eng (English) 4560,514 2255 1285611640 7690968
00006.M2TS 4353 (0x1101) 0x86 DTS-HD MA eng (English) 4560,514 4598 2621387556 14957999[/code]
<---- END FORUMS PASTE ---->

QUICK SUMMARY:

Disc Title:
Disc Size: 34524399906 bytes
Protection: AACS
BD-Java: No
Playlist: 00004.MPLS
Size: 28321701888 bytes
Length: 2:12:05
Total Bitrate: 28,59 Mbps
Video: MPEG-4 AVC Video / 19999 kbps / 1080p / 23,976 fps / 16:9 / High Profile 4.1
Audio: English / DTS-HD Master Audio / 5.1 / 48 kHz / 4610 kbps / 24-bit (DTS Core: 5.1 / 48 kHz / 1509 kbps / 24-bit)
Audio: English / DTS-HD Master Audio / 2.0 / 48 kHz / 2262 kbps / 24-bit (DTS Core: 2.0 / 48 kHz / 1509 kbps / 24-bit)

********************
PLAYLIST: 00005.MPLS
********************

<--- BEGIN FORUMS PASTE --->
[code]Total Video
Title Codec Length Movie Size Disc Size Bitrate Bitrate Main Audio Track Secondary Audio Track
----- ------ ------- -------------- -------------- ------- ------- ------------------ ---------------------
00005.MPLS AVC 0:22:57 4024326144 34524399906 23,38 20,00 DTS-HD Master 2.0 2107Kbps (48kHz/24-bit)[/code]
[code]DISC INFO:

Disc Title:
Disc Size: 34524399906 bytes
Protection: AACS
BD-Java: No
BDInfo: 0.5.3

PLAYLIST REPORT:

Name: 00005.MPLS
Length: 0:22:57 (h:m:s)
Size: 4024326144 bytes
Total Bitrate: 23,38 Mbps

VIDEO:

Codec Bitrate Description
----- ------- -----------
MPEG-4 AVC Video 19995 kbps 1080p / 23,976 fps / 16:9 / High Profile 4.1

AUDIO:

Codec Language Bitrate Description
----- -------- ------- -----------
DTS-HD Master Audio English 2107 kbps 2.0 / 48 kHz / 2107 kbps / 24-bit (DTS Core: 2.0 / 48 kHz / 1509 kbps / 24-bit)

FILES:

Name Time In Length Size Total Bitrate
---- ------- ------ ---- -------------
00007.M2TS 0:00:00.000 0:22:57.000 4024326144 23380

CHAPTERS:

Number Time In Length Avg Video Rate Max 1-Sec Rate Max 1-Sec Time Max 5-Sec Rate Max 5-Sec Time Max 10Sec Rate Max 10Sec Time Avg Frame Size Max Frame Size Max Frame Time
------ ------- ------ -------------- -------------- -------------- -------------- -------------- -------------- -------------- -------------- -------------- --------------
1 0:00:00.000 0:22:57.000 19995 kbps 30090 kbps 00:22:22.174 24602 kbps 00:22:30.140 23273 kbps 00:21:36.503 104246 bytes 517080 bytes 00:22:55.415

STREAM DIAGNOSTICS:

File PID Type Codec Language Seconds Bitrate Bytes Packets
---- --- ---- ----- -------- -------------- -------------- ------------- -----
00007.M2TS 4113 (0x1011) 0x1B AVC 1376,917 19996 3441684600 18723950
00007.M2TS 4352 (0x1100) 0x86 DTS-HD MA eng (English) 1376,917 2107 362600536 2189928[/code]
<---- END FORUMS PASTE ---->

QUICK SUMMARY:

Disc Title:
Disc Size: 34524399906 bytes
Protection: AACS
BD-Java: No
Playlist: 00005.MPLS
Size: 4024326144 bytes
Length: 0:22:57
Total Bitrate: 23,38 Mbps
Video: MPEG-4 AVC Video / 19995 kbps / 1080p / 23,976 fps / 16:9 / High Profile 4.1
Audio: English / DTS-HD Master Audio / 2.0 / 48 kHz / 2107 kbps / 24-bit (DTS Core: 2.0 / 48 kHz / 1509 kbps / 24-bit)

********************
PLAYLIST: 00006.MPLS
********************

<--- BEGIN FORUMS PASTE --->
[code]Total Video
Title Codec Length Movie Size Disc Size Bitrate Bitrate Main Audio Track Secondary Audio Track
----- ------ ------- -------------- -------------- ------- ------- ------------------ ---------------------
00006.MPLS AVC 0:10:12 1801359360 34524399906 23,52 20,00 DTS-HD Master 2.0 2241Kbps (48kHz/24-bit)[/code]
[code]DISC INFO:

Disc Title:
Disc Size: 34524399906 bytes
Protection: AACS
BD-Java: No
BDInfo: 0.5.3

PLAYLIST REPORT:

Name: 00006.MPLS
Length: 0:10:12 (h:m:s)
Size: 1801359360 bytes
Total Bitrate: 23,52 Mbps

VIDEO:

Codec Bitrate Description
----- ------- -----------
MPEG-4 AVC Video 19997 kbps 1080p / 23,976 fps / 16:9 / High Profile 4.1

AUDIO:

Codec Language Bitrate Description
----- -------- ------- -----------
DTS-HD Master Audio English 2241 kbps 2.0 / 48 kHz / 2241 kbps / 24-bit (DTS Core: 2.0 / 48 kHz / 1509 kbps / 24-bit)

FILES:

Name Time In Length Size Total Bitrate
---- ------- ------ ---- -------------
00008.M2TS 0:00:00.000 0:10:12.653 1801359360 23522

CHAPTERS:

Number Time In Length Avg Video Rate Max 1-Sec Rate Max 1-Sec Time Max 5-Sec Rate Max 5-Sec Time Max 10Sec Rate Max 10Sec Time Avg Frame Size Max Frame Size Max Frame Time
------ ------- ------ -------------- -------------- -------------- -------------- -------------- -------------- -------------- -------------- -------------- --------------
1 0:00:00.000 0:10:12.653 19997 kbps 32454 kbps 00:01:26.544 29205 kbps 00:01:22.540 28422 kbps 00:03:06.519 104257 bytes 431041 bytes 00:01:27.504

STREAM DIAGNOSTICS:

File PID Type Codec Language Seconds Bitrate Bytes Packets
---- --- ---- ----- -------- -------------- -------------- ------------- -----
00008.M2TS 4113 (0x1011) 0x1B AVC 612,570 20000 1531432697 8331599
00008.M2TS 4352 (0x1100) 0x86 DTS-HD MA eng (English) 612,570 2241 171581832 1029904[/code]
<---- END FORUMS PASTE ---->

QUICK SUMMARY:

Disc Title:
Disc Size: 34524399906 bytes
Protection: AACS
BD-Java: No
Playlist: 00006.MPLS
Size: 1801359360 bytes
Length: 0:10:12
Total Bitrate: 23,52 Mbps
Video: MPEG-4 AVC Video / 19997 kbps / 1080p / 23,976 fps / 16:9 / High Profile 4.1
Audio: English / DTS-HD Master Audio / 2.0 / 48 kHz / 2241 kbps / 24-bit (DTS Core: 2.0 / 48 kHz / 1509 kbps / 24-bit)


 ·  , , FAQ-
:  [ 28--2011 22:55 ]

  

.torrent

.torrent 43 KB


: 32.15 GB
(hash) : 748a2dac2744b28871f38c67dfeabacb87d80b70
··
...

Joe Bonamassa - Live from the Royal Albert Hall . !

!