Скачать порно через торрент Teacher's Pet Любимец учителя UnionPeer.org бесплатно онлайн HD качество

Скачать новое порно 2015, 2014 новинки через торрент UnionPeer.org

Порно торрент бесплатно ЮнионПир.орг

Если у вас наблюдаются проблемы со скриншотами, переходом по ссылками, скачиванием торрентов - проблемы в блокировщике рекламы AdBlock. #хорошегоДня!


Статистика раздачи
Размер:  693 MB   |    Зарегистрирован:  8 месяцев   |    .torrent скачан:  52 раза   |   
Раздают:  1  
   
Загрузка...
 
Автор Сообщение

Galfimbul

avatar Galfimbul


Teacher's Pet / Любимец учителя

Год производства: 2007 г.
Страна: USA
Жанр: all sex
Продолжительность: 01:21:57

Режиссер: Jim Steel
Студия: HIS Video

В ролях: Brad Benton
Brant Moore
David Goldwyn
Jayden Holloway
Jesse Santana
Kyle Aames
Mark Cirriano
Mark Slade
Trevor Knight
Tristan Mathews

Описание: Description: Five quality scenes from a dependable director. Hot-as-a-rocket cover-cutie Santana gets to do only a surly, pouty solo on his knees in a hallway, but the other, more-established stars get to express themselves fully with partners. In a swell little kitchen, always-hot and badder-than-ever Benton oozes banana from his mouth into handsome Moore's before the two engage in tongue-sucking, cocksucking, and a rodeo-raucous flip-fuck on the tidy counter. In a study, bored with books, brunet Matthews kneels like a slave to unbutton blond Aames, making Aames feel king enough to fuck slave-ass over an armchair. Big, somehow European looking Cirriano woos blond-tipped student Holloway in a way no lad could resist, and Holloway doesn't resist. He sticks it in the air and gets it licked and dicked. Comic-book hulk Slade masturbates with students Knight and Goldwyn in a study-hall situation, and who wouldn't?

General
Complete name : F:\next door\Teacher's Pet.wmv
Format : Windows Media
File size : 693 MiB
Duration : 1h 21mn
Overall bit rate mode : Constant
Overall bit rate : 1 183 Kbps
Maximum Overall bit rate : 1 189 Kbps
Encoded by : Tunebite
Encoded date : UTC 2008-10-30 02:41:37.971

Video
ID : 2
Format : VC-1
Format profile : MP@ML
Codec ID : WMV3
Codec ID/Info : Windows Media Video 9
Codec ID/Hint : WMV3
Description of the codec : Windows Media Video 9 - Professional
Duration : 1h 21mn
Bit rate mode : Constant
Bit rate : 1 049 Kbps
Width : 640 pixels
Height : 480 pixels
Display aspect ratio : 4:3
Frame rate : 29.970 fps
Bit depth : 8 bits
Scan type : Progressive
Compression mode : Lossy
Bits/(Pixel*Frame) : 0.114
Stream size : 615 MiB (89%)

Audio
ID : 1
Format : WMA
Format version : Version 2
Codec ID : 161
Codec ID/Info : Windows Media Audio
Description of the codec : Windows Media Audio 9.2 - 128 kbps, 44 kHz, stereo 1-pass CBR
Duration : 1h 21mn
Bit rate mode : Constant
Bit rate : 128 Kbps
Channel(s) : 2 channels
Sampling rate : 44.1 KHz
Bit depth : 16 bits
Stream size : 75.0 MiB (11%)

Доп. информация: http://www.gayeroticvideoindex.com/V/4/29974.html

Качество видео: DVDRip
Формат видео: WMV
Видео: Overall bit rate : 1 183 Kbps
Аудио: Bit rate : 128 Kbps


Трекер:  [ 06-Мар-2017 18:30 ]

  

Скачать .torrent

Размер .torrent файла 54 KB


Размер: 693 MB
Хэш (hash) релиза: 4a22e2cfac59ff8dd3ce417ab865f84519487071

Торренты, похожие на Teacher's Pet Любимец учителя скачать торрент

Форум Название Автор Размер S L Добавлен
Гонзо-фильмы ·· Naughty Teacher's Pet / Непослушный любимец учителя (Pegas Productions) [2015 г., 18+ Teens, Canadian, Foreign, Gonzo, Teachers, 540p, WEB-DL] (Split Scenes) Galfimbul 17685045361.65 GB 0 0 1497737507

01:11

18-Июн-17

Зарубежные порнофильмы ·· Naughty Teacher's Pet / Непослушный любимец учителя (Pegas Productions) [2015 г., 18+ Teens, Canadian, Foreign, Gonzo, Teachers, 1080p, WEB-DL] (Split Scenes) Galfimbul 46312361214.31 GB 1 1 1497737436

01:10

18-Июн-17

Еще никто не оставлял запись к записи скачать торрент Teacher's Pet Любимец учителя . Будь первым!

!Обратная связь