Скачать порно через торрент Bikers Bang 1,2 Байкеры трахаются 1, 2 UnionPeer.org бесплатно онлайн HD качество

Скачать новое порно 2015, 2014 новинки через торрент UnionPeer.org

Порно торрент бесплатно ЮнионПир.орг

Если у вас наблюдаются проблемы со скриншотами, переходом по ссылками, скачиванием торрентов - проблемы в блокировщике рекламы AdBlock. #хорошегоДня!


Статистика раздачи
Размер:  2.97 GB   |    Зарегистрирован:  8 месяцев   |    .torrent скачан:  57 раз   |   
Раздают:  1  
   
Загрузка...
 
Автор Сообщение

Galfimbul

avatar Galfimbul


Bikers Bang 1,2 / Байкеры трахаются 1, 2



Год производства: 2001 г.
Страна: USA
Жанр: Oral, Anal, Group Sex, Condom, Orgy, Hunk, Outdoor
Продолжительность: 3:00:29

Режиссер: Csaba Borbely
Студия: Pacific Sun Entertainment

В ролях: Andreas Harris, Chris Russell, Eddie Schulz, Enrico Benetti, Fred Goldsmith, Giovanni Winkler, Jack Laurel, Janos Volt, Joe Calderon, Jonathan Collins, José Ganatti, Ken Spencer, Leslie Manzel, Luciano Carroll, Paul Skeritt, Randy Jones, Roberto Giorgio, Soto Donovan, Ted Colanga, Ted Ashton, Ted Lauther, Tony Magera

Описание: Biker''s bang 1: 15 hotter than hell studs rev up more than their motorcycle engines, and maximize their beefy muscular bodies into an ongoing sex fest. Director Borbely Csaba captures pent up sexual tension between his men from start to finish.
Immediately you want to see these hunks strip out of their leather and expose large endowments of throbbing manhood.You can bet the first set of bikers race against each other for a lot more than just money and groan with on-going sexual pleasure.
New exclusive super stud, Jonathan Collins promises one hot scene after another both in part 1 & 2 . Get tuned up with these cycle studs, mechanics, and real men heating each other''s swelled flesh beneath the jeans, and juicy hot xxx sex-pig action!

Biker''s Bang 2: New exclusive star Jonathan Collins is one hot buffed top willing to jump right into the action for pure raw sex. Bikers bang 2 is another top notch visually spectacular sequel including all the exclusives Roberto Giorgio, Janos Volt, Leslie Manzel and Fred Goldsmith directed in only the way Csaba Borbely can create. Borbely introduces more hunky straight acting men that cruise each other and aggressively deliver breathtaking action. Greased up, revved up tops plus roaring bottoms make all these studs hotter then hell!

Доп. информация: Biker''s Bang 1: http://gayeroticvideoindex.com/V/6/19496.html
Biker''s Bang 2: http://gayeroticvideoindex.com/V/7/19497.html
По поводу названия: поскольку апострофа нигде нет, "bang" считается за глагол. Ну а значение именно такое.

Качество видео: DVDRip
Формат видео: MP4
Видео: AVC, 1280 x 720 (16:9), 29.970 fps, 2 194 Kbps,
Аудио: AAC, 48.0 KHz, 157 Kbps
Имя файла: Bikers Bang 1+2.mp4
Формат файла: .mp4 (MPEG-4)
Размер файла: 2,97 GB (3 187 337 493 bytes)
Длительность: 3h 0mn
Навигация по главам: Нет
Битрейт (все потоки): 2 355 Kbps
Тип битрейта (все потоки): Variable
Обложка: Отсутствует

Название: Bikers Bang 1+2

Тип потока: Видео
Длительность: 03:00:29
Кодек: AVC
Кодек/описание: Advanced Video Codec
Кодек/профиль: Main@L3.1
Кодек/ID: avc1
Кодек/CABAC: No
Кодек/ReFrames: 2 frames
Размеры изображения: 1280 x 720 (16:9)
Частота кадров: 29.970 fps
Частота кадров/тип: Constant
Размер потока: 2.77 GiB (93%)
Битрейт: 2 194 Kbps
Стандарт: NTSC
Цветовое пространство: YUV
Тип развёртки: Progressive
Колориметрия: 4:2:0
Глубина: 8 bits

Тип потока: Звук #1
Язык: English
Длительность: 03:00:29.129
Кодек: AAC
Кодек/описание: Advanced Audio Codec
Кодек/профиль: LC
Кодек/ID: 40
Частота дискретизации: 48.0 KHz
Каналов: 2 channels
Битрейт: 157 Kbps
Битрейт/тип: Variable
Размер потока: 203 MiB (7%)
Метод сжатия: Lossy


Трекер:  [ 06-Мар-2017 08:30 ]

  

Скачать .torrent

Размер .torrent файла 15 KB


Размер: 2.97 GB
Хэш (hash) релиза: 76af9283c9d8f3469f6489433f5660d8db5b11d5

Еще никто не оставлял запись к записи скачать торрент Bikers Bang 1,2 Байкеры трахаются 1, 2 . Будь первым!

!Обратная связь