Скачать через торрент Куркуль Серии: 1-2 из 2 Фильм бесплатно в хорошем качестве torrent

Скачивайте на UnionPeer.org фильмы через торрент без регистрации. Новинки кино в хорошем качестве через торрент. На UnionPeer.org можно скачать через торрент фильмы 2014 и 2015 годов. Самые новые фильмы.

Скачать торрент Куркуль Серии: 1-2 из 2 бесплатно через .torrent фильм мультфильм сериал

Если у вас наблюдаются проблемы со скриншотами, переходом по ссылками, скачиванием торрентов - проблемы в блокировщике рекламы AdBlock. #хорошегоДня!


Статистика раздачи
Размер:  1.17 GB   |    Зарегистрирован:  8 месяцев   |    .torrent скачан:  164 раза   |   
Раздают:  1  
   
Загрузка...
 
Автор Сообщение

Galfimbul

avatar Galfimbul


Куркуль

Год выпуска: 2017
Производство: Амедиа Продакшн
Жанр: Боевик, драма
Продолжительность: 00:46:00
Субтитры: нет
Режиссёр: Екатерина Шагалова
В ролях: Алексей Кравченко, Александр Феклистов, Наталия Вдовина, Никита Тезин, Анастасия Шумилкина
Описание: Фермерское хозяйство Антона Терехова по прозвищу Кулак оказалось под угрозой уничтожения, когда на соседних землях началось бурное строительство коттеджного поселка. Руководит застройкой вице-мэр райцентра Григорий Жилов. Заполучить земли Терехова чиновник хочет любой ценой, но Кулак ни за что не готов расстаться со своими владениями. Тогда Жилов начинает играть не по правилам… Кто победит в этом противостоянии — справедливость или власть?

Релиз от:
Качество: HDTVRip
Формат: AVI
Видео кодек: XviD
Аудио кодек: AC3
Видео: 720x400 (16:9), 25.000 fps, XviD build 73, 1626 Kbps, 0.22 Bits/Pixel
Аудио: 48 kHz, AC3 Dolby Digital, 2 ch, 192 Kbps

Реклама: Нет
General
Complete name : Downloads\Kurkul.2016.HDTVRip.Files-x\01.Kurkul.2016.HDTVRip.Files-x.avi
Format : AVI
Format/Info : Audio Video Interleave
File size : 600 MiB
Duration : 45mn 53s
Overall bit rate : 1 828 Kbps
Writing application : VirtualDubMod 1.5.10.3 | www.virtualdub-fr.org || (build 2550/release)
Writing library : VirtualDubMod build 2550/release
Video #0
ID : 0
Format : MPEG-4 Visual
Format profile : Advanced Simple@L5
Format settings, BVOP : 1
Format settings, QPel : No
Format settings, GMC : No warppoints
Format settings, Matrix : Custom
Codec ID : XVID
Codec ID/Hint : XviD
Duration : 45mn 53s
Bit rate : 1 626 Kbps
Width : 720 pixels
Height : 400 pixels
Display aspect ratio : 16:9
Frame rate : 25.000 fps
Color space : YUV
Chroma subsampling : 4:2:0
Bit depth : 8 bits
Scan type : Progressive
Compression mode : Lossy
Bits/(Pixel*Frame) : 0.226
Stream size : 534 MiB (89%)
Writing library : XviD 73
Audio #1
ID : 1
Format : AC-3
Format/Info : Audio Coding 3
Mode extension : CM (complete main)
Format settings, Endianness : Big
Codec ID : 2000
Duration : 45mn 53s
Bit rate mode : Constant
Bit rate : 192 Kbps
Channel(s) : 2 channels
Channel positions : Front: L R
Sampling rate : 48.0 KHz
Bit depth : 16 bits
Compression mode : Lossy
Stream size : 63.0 MiB (11%)
Alignment : Split accross interleaves
Interleave, duration : 40 ms (1.00 video frame)
Interleave, preload duration : 500 ms


Трекер:  [ 06-Мар-2017 02:00 ]

  

Скачать .torrent

Размер .torrent файла 12 KB


Размер: 1.17 GB
Хэш (hash) релиза: 5e3492caa3df7ba7a6788d43d2e0c9485602dec3
Подписка на обновления:

Торренты, похожие на Куркуль Серии: 1-2 из 2 скачать торрент

Форум Название Автор Размер S L Добавлен
Российские сериалы ·· Куркуль / Серии: 1-2 из 2 (Екатерина Шагалова) [2017,детектив, мелодрама, SATRip-AVC] Galfimbul 13660591811.27 GB 0 0 1488750636

00:50

6-Мар-17

Еще никто не оставлял запись к записи скачать торрент Куркуль Серии: 1-2 из 2 . Будь первым!

!Обратная связь