Earth, Wind & Fire: Live At Montreux torrent

, , - AdBlock. #!


21.03 GB   |    :  6 3    |    .torrent :  66    |   
1  
   
...
 

Galfimbul

avatar Galfimbul


EARTH, WIND & FIRE:
Live At Montreux 1997
: 1997
: Jazz, Funk, R&B, Soul
: 01:30:15


Earth,Wind & Fire were in typically exuberant form when they paid their first visit to the Montreux Jazz Festival in 1997. They delivered a sparkling performance featuring a string of classic hits including Saturday Nite, September, Let's Grove, Fantasy, Devotion, After The Love Has Gone, Shining Star, Can't Hide Love and Boogie Wonderland. As a bonus, included here are seven additional tracks from the band's equally fine return performance in 1998.




: , Eagle Rock Entertainment
: Blu-ray, BD-25 Single-Layer Disc
: M2TS
: AVC, MPEG-4, 1920x1080 pixels, 29.970 fps, ~19.0 Mbps
: 1.English DTS-HD MA 5.1 (48 kHz / 5294 kbps / 24-bit) 2.English Dolby Digital 5.1 (448 kbps) 3.English LPCM 2.0 (48 kHz / 2304 kbps / 24-bit)
Supplements: Bonus Tracks


Maurice White - , ,
Philip Bailey - ,
Verdine White -
Ralph Johnson - , ,
Robert Brookins -
Myron McKinley -
Bobby Gonzales -
Danny Reyes -
B. David Whitworth - ,
John Paris -
Ray Brown - ,
Reggie Young -
Gary Bias -
Toyona Holloway - -
"Earth, Wind And Fire" , , --, , , . (. 19 1941), "Ramsey Lewis Trio" "Salty Peppers". (), (), (. 25 1951; ), (), (), (), (, ) (, ). "Earth, Wind And Fire" , "I Think About Lovin' You" 40 -- . , , .

: . "Head To The Sky" -, "Evil" "Keep Your Head To The Sky", . "Open Our Eyes" , 1975- "EMF" - "Shining Star" "That's The Way Of The World". . "Gratitude" , , "" . , , -, .

70- "Earth, Wind And Fire" : "Spirit", "All 'N All" "I Am". "EMF" : , . 1979- , - "Boogie Wonderland" - . , "Faces", . , , .

-, "I Wanna Be With You". 1983- "Electric Universe" , . 1987- "Columbia" "Earth, Wind And Fire". , "Touch The World" , "System Of Survival" "Thinking Of You" ( -, -- ). 1988- "The Best of Earth, Wind & Fire Vol II", 1990- "Columbia" , "Heritage".

90- "Earth, Wind And Fire" , . , . 1995- "EWF", 2000 --. "Kalimba Records" : "Live In Rio" ( 1980 ) "The Promise". 2005- , "Illumination", "Grammy" .
</span>
[i]1. Introduction by Claude Nobs
2. Rock That
3. Jupiter
4. Saturday Night
5. Revolution
6. Gratitude
7. September
8. Let's Goove
9. Rock It
10. Sun Goddess
11. Can't Hide Love
12. That's The Way Of The World
13. Drums Solo
14. Reasons
15. Fantasy
16. Mo's Solo
17. Boogie Wonderland
18. After The Love Has Gone
19. Sing A Song
20. Shining Star
21. Devotion
Bonus track:
22. Kalimba Funk Intro
23. Medley: Pride / Mighty Mighty
24. In The Stone
25. Solo Percussion
26. I'll Write A Song
27. Love's Holiday
28. Getaway
Disc Title:
Disc Size: 22581098636 bytes
Protection: AACS
BD-Java: No
BDInfo: 0.5.3

Notes:

BDINFO HOME:
Cinema Squid
http://www.cinemasquid.com/blu-ray/tools/bdinfo

INCLUDES FORUMS REPORT FOR:
AVS Forum Blu-ray Audio and Video Specifications Thread
http://www.avsforum.com/avs-vb/showthread.php?t=1155731

********************
PLAYLIST: 00000.MPLS
********************

<--- BEGIN FORUMS PASTE --->

:

Total Video
Title Codec Length Movie Size Disc Size Bitrate Bitrate Main Audio Track Secondary Audio Track
----- ------ ------- -------------- -------------- ------- ------- ------------------ ---------------------
00000.MPLS AVC 1:30:15 19380989952 22581098636 28,63 19,03 DTS-HD Master 5.1 5294Kbps (48kHz/24-bit) DD AC3 5.1 448Kbps[/spoiler]
[code]DISC INFO:

Disc Title:
Disc Size: 22581098636 bytes
Protection: AACS
BD-Java: No
BDInfo: 0.5.3

PLAYLIST REPORT:

Name: 00000.MPLS
Length: 1:30:15 (h:m:s)
Size: 19380989952 bytes
Total Bitrate: 28,63 Mbps

VIDEO:

Codec Bitrate Description
----- ------- -----------
MPEG-4 AVC Video 19030 kbps 1080i / 29,970 fps / 16:9 / High Profile 4.1

AUDIO:

Codec Language Bitrate Description
----- -------- ------- -----------
DTS-HD Master Audio English 5294 kbps 5.1 / 48 kHz / 5294 kbps / 24-bit (DTS Core: 5.1 / 48 kHz / 1509 kbps / 24-bit)
Dolby Digital Audio English 448 kbps 5.1 / 48 kHz / 448 kbps / DN -4dB
LPCM Audio English 2304 kbps 2.0 / 48 kHz / 2304 kbps / 24-bit

FILES:

Name Time In Length Size Total Bitrate
---- ------- ------ ---- -------------
00001.M2TS 0:00:00.000 1:30:15.343 19380989952 28631

CHAPTERS:

Number Time In Length Avg Video Rate Max 1-Sec Rate Max 1-Sec Time Max 5-Sec Rate Max 5-Sec Time Max 10Sec Rate Max 10Sec Time Avg Frame Size Max Frame Size Max Frame Time
------ ------- ------ -------------- -------------- -------------- -------------- -------------- -------------- -------------- -------------- -------------- --------------
1 0:00:00.000 0:00:34.634 5229 kbps 11400 kbps 00:00:31.231 10003 kbps 00:00:20.820 9148 kbps 00:00:17.784 21790 bytes 169570 bytes 00:00:19.419
2 0:00:34.634 0:00:54.621 19116 kbps 28572 kbps 00:01:11.504 23543 kbps 00:01:10.703 21970 kbps 00:01:08.368 79730 bytes 256683 bytes 00:00:55.622
3 0:01:29.255 0:02:18.371 21596 kbps 30887 kbps 00:03:15.628 26383 kbps 00:03:15.361 25990 kbps 00:03:15.361 90073 bytes 263994 bytes 00:02:55.074
4 0:03:47.627 0:01:57.050 20608 kbps 27422 kbps 00:05:38.771 25019 kbps 00:05:37.036 23020 kbps 00:04:09.315 85952 bytes 267698 bytes 00:03:55.468
5 0:05:44.677 0:03:09.556 19683 kbps 29939 kbps 00:06:10.503 25724 kbps 00:06:06.999 23883 kbps 00:06:01.994 82094 bytes 292237 bytes 00:06:07.500
6 0:08:54.233 0:02:56.242 18931 kbps 28686 kbps 00:11:16.542 23800 kbps 00:11:15.107 21887 kbps 00:09:03.142 78957 bytes 273191 bytes 00:10:55.855
7 0:11:50.476 0:02:27.113 20525 kbps 32591 kbps 00:12:17.970 25750 kbps 00:12:17.169 23702 kbps 00:12:12.064 85607 bytes 266835 bytes 00:12:21.974
8 0:14:17.590 0:03:25.672 18793 kbps 31221 kbps 00:17:38.357 25213 kbps 00:17:25.043 22218 kbps 00:17:25.044 78381 bytes 297625 bytes 00:16:29.988
9 0:17:43.262 0:02:08.528 19934 kbps 30635 kbps 00:18:04.049 24785 kbps 00:19:19.057 23564 kbps 00:19:18.590 83142 bytes 275717 bytes 00:18:57.202
10 0:19:51.790 0:09:00.506 18689 kbps 33273 kbps 00:28:24.736 28595 kbps 00:24:04.109 25452 kbps 00:24:03.108 77950 bytes 287183 bytes 00:22:49.368
11 0:28:52.297 0:02:55.975 17229 kbps 28055 kbps 00:30:32.263 25198 kbps 00:30:29.360 22272 kbps 00:31:19.010 71861 bytes 267903 bytes 00:31:46.671
12 0:31:48.273 0:04:52.325 18635 kbps 30438 kbps 00:36:20.978 25411 kbps 00:34:24.829 23230 kbps 00:34:47.251 77722 bytes 283136 bytes 00:36:25.216
13 0:36:40.598 0:06:40.500 20417 kbps 33577 kbps 00:39:11.949 29221 kbps 00:38:42.186 26033 kbps 00:38:40.818 85155 bytes 308325 bytes 00:38:44.021
14 0:43:21.098 0:07:19.906 18001 kbps 32552 kbps 00:44:48.152 29993 kbps 00:44:46.550 27142 kbps 00:44:44.081 75080 bytes 331454 bytes 00:44:49.153
15 0:50:41.004 0:08:43.189 18539 kbps 30686 kbps 00:56:32.889 26310 kbps 00:55:11.374 24937 kbps 00:56:27.350 77323 bytes 276845 bytes 00:57:18.067
16 0:59:24.193 0:02:49.869 19056 kbps 28618 kbps 01:00:33.463 23487 kbps 01:00:51.214 22444 kbps 01:00:50.513 79479 bytes 275748 bytes 01:02:01.017
17 1:02:14.063 0:03:18.731 20432 kbps 30722 kbps 01:04:12.915 24591 kbps 01:04:13.282 23965 kbps 01:05:01.530 85217 bytes 257347 bytes 01:05:32.795
18 1:05:32.795 0:04:00.273 17846 kbps 30764 kbps 01:07:21.670 24222 kbps 01:07:17.666 21752 kbps 01:09:18.721 74432 bytes 270304 bytes 01:08:31.807
19 1:09:33.068 0:02:13.766 19846 kbps 31404 kbps 01:10:57.653 24721 kbps 01:11:31.754 23201 kbps 01:10:22.251 82773 bytes 270810 bytes 01:10:57.720
20 1:11:46.835 0:07:46.365 19134 kbps 29737 kbps 01:16:02.291 27174 kbps 01:13:22.765 25955 kbps 01:13:21.830 79805 bytes 293497 bytes 01:15:57.953
21 1:19:33.201 0:10:42.141 19270 kbps 31484 kbps 01:21:58.213 28203 kbps 01:21:56.378 25873 kbps 01:26:54.909 80377 bytes 297213 bytes 01:27:02.050

STREAM DIAGNOSTICS:

File PID Type Codec Language Seconds Bitrate Bytes Packets
---- --- ---- ----- -------- -------------- -------------- ------------- -----
00001.M2TS 4113 (0x1011) 0x1B AVC 5415,277 19030 12881715836 70104414
00001.M2TS 4352 (0x1100) 0x80 LPCM eng (English) 5415,277 2309 1562747340 8657880
00001.M2TS 4353 (0x1101) 0x81 AC3 eng (English) 5415,277 444 300552448 1677190
00001.M2TS 4354 (0x1102) 0x86 DTS-HD MA eng (English) 5415,277 5294 3583833592 20321730[/code]
<---- END FORUMS PASTE ---->

QUICK SUMMARY:

Disc Title:
Disc Size: 22581098636 bytes
Protection: AACS
BD-Java: No
Playlist: 00000.MPLS
Size: 19380989952 bytes
Length: 1:30:15
Total Bitrate: 28,63 Mbps
Video: MPEG-4 AVC Video / 19030 kbps / 1080i / 29,970 fps / 16:9 / High Profile 4.1
Audio: English / DTS-HD Master Audio / 5.1 / 48 kHz / 5294 kbps / 24-bit (DTS Core: 5.1 / 48 kHz / 1509 kbps / 24-bit)
Audio: English / Dolby Digital Audio / 5.1 / 48 kHz / 448 kbps / DN -4dB
Audio: English / LPCM Audio / 2.0 / 48 kHz / 2304 kbps / 24-bit

********************
PLAYLIST: 00001.MPLS
********************

<--- BEGIN FORUMS PASTE --->
[code]Total Video
Title Codec Length Movie Size Disc Size Bitrate Bitrate Main Audio Track Secondary Audio Track
----- ------ ------- -------------- -------------- ------- ------- ------------------ ---------------------
00001.MPLS MPEG-2 0:23:24 2979004416 22581098636 16,97 8,07 DTS-HD Master 5.1 5070Kbps (48kHz/24-bit) DD AC3 5.1 448Kbps[/code]
[code]DISC INFO:

Disc Title:
Disc Size: 22581098636 bytes
Protection: AACS
BD-Java: No
BDInfo: 0.5.3

PLAYLIST REPORT:

Name: 00001.MPLS
Length: 0:23:24 (h:m:s)
Size: 2979004416 bytes
Total Bitrate: 16,97 Mbps

VIDEO:

Codec Bitrate Description
----- ------- -----------
MPEG-2 Video 8069 kbps 480i / 29,970 fps / 4:3

AUDIO:

Codec Language Bitrate Description
----- -------- ------- -----------
DTS-HD Master Audio English 5070 kbps 5.1 / 48 kHz / 5070 kbps / 24-bit (DTS Core: 5.1 / 48 kHz / 1509 kbps / 24-bit)
Dolby Digital Audio English 448 kbps 5.1 / 48 kHz / 448 kbps
LPCM Audio English 2304 kbps 2.0 / 48 kHz / 2304 kbps / 24-bit

FILES:

Name Time In Length Size Total Bitrate
---- ------- ------ ---- -------------
00000.M2TS 0:00:00.000 0:15:23.022 1942923264 16840
00010.M2TS 0:15:23.022 0:08:01.714 1036081152 17207

CHAPTERS:

Number Time In Length Avg Video Rate Max 1-Sec Rate Max 1-Sec Time Max 5-Sec Rate Max 5-Sec Time Max 10Sec Rate Max 10Sec Time Avg Frame Size Max Frame Size Max Frame Time
------ ------- ------ -------------- -------------- -------------- -------------- -------------- -------------- -------------- -------------- -------------- --------------
1 0:00:00.000 0:01:49.375 8002 kbps 9256 kbps 00:00:50.784 8219 kbps 00:01:23.216 8107 kbps 00:01:18.211 33363 bytes 100316 bytes 00:01:40.200
2 0:01:49.375 0:03:28.107 8000 kbps 8771 kbps 00:03:07.020 8191 kbps 00:05:04.937 8074 kbps 00:04:59.932 33367 bytes 101444 bytes 00:05:09.909
3 0:05:17.483 0:02:32.051 8000 kbps 9095 kbps 00:07:27.980 8242 kbps 00:07:24.410 8113 kbps 00:07:19.405 33367 bytes 124500 bytes 00:05:33.032
4 0:07:49.535 0:03:08.655 8000 kbps 9114 kbps 00:10:37.436 8248 kbps 00:10:33.466 8115 kbps 00:09:24.730 33367 bytes 134840 bytes 00:08:40.419
5 0:10:58.190 0:04:24.831 8000 kbps 9155 kbps 00:15:08.207 8201 kbps 00:15:06.205 8118 kbps 00:14:59.231 33367 bytes 105480 bytes 00:15:14.613
6 0:15:23.022 0:03:27.774 8200 kbps 8852 kbps 00:17:57.342 8345 kbps 00:18:11.323 8267 kbps 00:17:48.333 34201 bytes 99448 bytes 00:15:51.050
7 0:18:50.796 0:04:33.940 8199 kbps 9193 kbps 00:23:08.186 8497 kbps 00:23:04.282 8351 kbps 00:22:59.277 34202 bytes 120708 bytes 00:23:08.286

STREAM DIAGNOSTICS:

File PID Type Codec Language Seconds Bitrate Bytes Packets
---- --- ---- ----- -------- -------------- -------------- ------------- -----
00000.M2TS 4113 (0x1011) 0x02 MPEG-2 922,922 8001 923022108 5032631
00000.M2TS 4352 (0x1100) 0x80 LPCM eng (English) 922,922 2311 266569620 1476840
00000.M2TS 4353 (0x1101) 0x81 AC3 eng (English) 922,922 448 51690240 288450
00000.M2TS 4354 (0x1102) 0x86 DTS-HD MA eng (English) 922,922 5019 579005344 3290520
00010.M2TS 4113 (0x1011) 0x02 MPEG-2 481,581 8202 493757440 2691811
00010.M2TS 4352 (0x1100) 0x80 LPCM eng (English) 481,581 2311 139090412 770584
00010.M2TS 4353 (0x1101) 0x81 AC3 eng (English) 481,581 448 26971392 150510
00010.M2TS 4354 (0x1102) 0x86 DTS-HD MA eng (English) 481,581 5172 311322768 1767172[/code]
<---- END FORUMS PASTE ---->

QUICK SUMMARY:

Disc Title:
Disc Size: 22581098636 bytes
Protection: AACS
BD-Java: No
Playlist: 00001.MPLS
Size: 2979004416 bytes
Length: 0:23:24
Total Bitrate: 16,97 Mbps
Video: MPEG-2 Video / 8069 kbps / 480i / 29,970 fps / 4:3
Audio: English / DTS-HD Master Audio / 5.1 / 48 kHz / 5070 kbps / 24-bit (DTS Core: 5.1 / 48 kHz / 1509 kbps / 24-bit)
Audio: English / Dolby Digital Audio / 5.1 / 48 kHz / 448 kbps
Audio: English / LPCM Audio / 2.0 / 48 kHz / 2304 kbps / 24-bit

********************
PLAYLIST: 00002.MPLS
********************

<--- BEGIN FORUMS PASTE --->
[code]Total Video
Title Codec Length Movie Size Disc Size Bitrate Bitrate Main Audio Track Secondary Audio Track
----- ------ ------- -------------- -------------- ------- ------- ------------------ ---------------------
00002.MPLS AVC 0:01:16 203649024 22581098636 21,27 18,92 DD AC3 5.1 448Kbps DD AC3 5.1 448Kbps[/code]
[code]DISC INFO:

Disc Title:
Disc Size: 22581098636 bytes
Protection: AACS
BD-Java: No
BDInfo: 0.5.3

PLAYLIST REPORT:

Name: 00002.MPLS
Length: 0:01:16 (h:m:s)
Size: 203649024 bytes
Total Bitrate: 21,27 Mbps

VIDEO:

Codec Bitrate Description
----- ------- -----------
MPEG-4 AVC Video 18924 kbps 1080i / 29,970 fps / 16:9 / High Profile 4.1

AUDIO:

Codec Language Bitrate Description
----- -------- ------- -----------
Dolby Digital Audio English 448 kbps 5.1 / 48 kHz / 448 kbps
Dolby Digital Audio English 448 kbps 5.1 / 48 kHz / 448 kbps
Dolby Digital Audio English 448 kbps 5.1 / 48 kHz / 448 kbps

FILES:

Name Time In Length Size Total Bitrate
---- ------- ------ ---- -------------
00006.M2TS 0:00:00.000 0:01:16.609 203649024 21266

CHAPTERS:

Number Time In Length Avg Video Rate Max 1-Sec Rate Max 1-Sec Time Max 5-Sec Rate Max 5-Sec Time Max 10Sec Rate Max 10Sec Time Avg Frame Size Max Frame Size Max Frame Time
------ ------- ------ -------------- -------------- -------------- -------------- -------------- -------------- -------------- -------------- -------------- --------------
1 0:00:00.000 0:01:16.609 18924 kbps 27021 kbps 00:00:22.822 22615 kbps 00:00:18.818 21693 kbps 00:00:15.582 78928 bytes 251976 bytes 00:00:03.603

STREAM DIAGNOSTICS:

File PID Type Codec Language Seconds Bitrate Bytes Packets
---- --- ---- ----- -------- -------------- -------------- ------------- -----
00006.M2TS 4113 (0x1011) 0x1B AVC 76,476 18957 181218372 986228
00006.M2TS 4352 (0x1100) 0x81 AC3 eng (English) 76,476 449 4291840 23950
00006.M2TS 4353 (0x1101) 0x81 AC3 eng (English) 76,476 449 4291840 23950
00006.M2TS 4354 (0x1102) 0x81 AC3 eng (English) 76,476 449 4291840 23950[/code]
<---- END FORUMS PASTE ---->

QUICK SUMMARY:

Disc Title:
Disc Size: 22581098636 bytes
Protection: AACS
BD-Java: No
Playlist: 00002.MPLS
Size: 203649024 bytes
Length: 0:01:16
Total Bitrate: 21,27 Mbps
Video: MPEG-4 AVC Video / 18924 kbps / 1080i / 29,970 fps / 16:9 / High Profile 4.1
Audio: English / Dolby Digital Audio / 5.1 / 48 kHz / 448 kbps
Audio: English / Dolby Digital Audio / 5.1 / 48 kHz / 448 kbps
Audio: English / Dolby Digital Audio / 5.1 / 48 kHz / 448 kbps


 ·  , , FAQ-
:  [ 28--2011 22:01 ]

  

.torrent

.torrent 108 KB


: 21.03 GB
(hash) : ce30689c142cbf2488ee6e23313e99be8759fc60
··
...

Earth, Wind & Fire: Live At Montreux . !

!