Eric Clapton and Steve Winwood - Live from Madison Square Garden torrent

, , - AdBlock. #!


40.81 GB   |    :  6 2    |    .torrent :  84    |   
1  
   
...
 

Galfimbul

avatar Galfimbul


Eric Clapton and Steve Winwood - Live from Madison Square Garden

: 2008
: Blues, Rock
: 02:19:06

Tracklist

01. Had to Cry Today
02. Them Changes
03. Forever Man
04. Sleeping in the Ground
05. Presence of the Lord
06. Glad
07. Well All Right
08. Double Trouble
09. Pearly Queen
10. Tell the Truth
11. No Face, No Name, No Number
12. After Midnight
13. Split Decision
14. Rambling on My Mind
15. Georgia on My Mind
16. Little Wing
17. Voodoo Chile
18. Can't Find My Way Home
19. Dear Mr. Fantasy
20. Cocaine

Bonus Materials

01. Low Down
02. Kind Hearted Woman
03. Crossroads

: Blu-ray
: BDMV
: MPEG-4 AVC
: DTS, AC3
: 1920x1080, MPEG-4 AVC, 23.976 fps, ~ 24.9 Mbps
:
DTS 5.1, 48 kHz, 1.5 Mbps
LPCM 2.0, 48 kHz, 2.3 Mbps
Disc Title: clapton_winwood
Disc Size: 43819219282 bytes
Protection: AACS
BD-Java: Yes
BDInfo: 0.5.2

Notes:

BDINFO HOME AND REPORTS SUBMISSION:
Cinema Squid
http://www.cinemasquid.com/Tools.aspx

INCLUDES FORUMS REPORT FOR:
Unofficial Blu-ray Audio and Video Specifications Thread
http://www.avsforum.com/avs-vb/showthread.php?t=760714
http://forum.blu-ray.com/showthread.php?t=3338

********************
PLAYLIST: 00001.MPLS
********************

<--- BEGIN FORUMS PASTE --->

:

Total Video
Title Codec Length Movie Size Disc Size Bitrate Bitrate Main Audio Track Secondary Audio Track
----- ------ ------- -------------- -------------- ------- ------- ------------------ ---------------------
00001.MPLS AVC 2:19:06 31565420544 43819219282 30,26 24,89 DTS 5.1 1509Kbps (48kHz/24-bit) LPCM 2.0 2304Kbps (48kHz/24-bit)[/spoiler]
[code]DISC INFO:

Disc Title: clapton_winwood
Disc Size: 43819219282 bytes
Protection: AACS
BD-Java: Yes
BDInfo: 0.5.2

PLAYLIST REPORT:

Name: 00001.MPLS
Size: 31565420544 bytes
Length: 2:19:06 (h:m:s)
Total Bitrate: 30,26 Mbps
Description:

VIDEO:

Codec Bitrate Description
----- ------- -----------
MPEG-4 AVC Video 24889 kbps 1080p / 23,976 fps / 16:9 / High Profile 4.1

AUDIO:

Codec Language Bitrate Description
----- -------- ------- -----------
DTS Audio English 1509 kbps 5.1 / 48 kHz / 1509 kbps / 24-bit
LPCM Audio English 2304 kbps 2.0 / 48 kHz / 2304 kbps / 24-bit

FILES:

Name Time In Length Size Total Bitrate
---- ------- ------ ---- -------------
00001.M2TS 0:00:00.000 2:19:06.129 31565420544 30256

CHAPTERS:

Number Time In Length Avg Video Rate Max 1-Sec Rate Max 1-Sec Time Max 5-Sec Rate Max 5-Sec Time Max 10Sec Rate Max 10Sec Time Avg Frame Size Max Frame Size Max Frame Time
------ ------- ------ -------------- -------------- -------------- -------------- -------------- -------------- -------------- -------------- -------------- --------------
1 0:00:00.000 0:02:12.006 23201 kbps 33874 kbps 00:01:35.261 30712 kbps 00:01:09.319 30207 kbps 00:00:24.649 120922 bytes 378174 bytes 00:01:14.324
2 0:02:12.006 0:08:26.964 24809 kbps 34868 kbps 00:09:23.563 28129 kbps 00:09:36.158 27373 kbps 00:09:36.284 129342 bytes 392004 bytes 00:03:44.766
3 0:10:38.971 0:05:47.013 25412 kbps 32997 kbps 00:12:32.752 28533 kbps 00:11:16.384 27414 kbps 00:14:47.052 132489 bytes 313157 bytes 00:14:10.432
4 0:16:25.984 0:03:54.025 25659 kbps 39328 kbps 00:17:45.856 28519 kbps 00:17:54.364 27253 kbps 00:19:18.490 133773 bytes 345721 bytes 00:17:45.898
5 0:20:20.010 0:04:49.080 25181 kbps 32840 kbps 00:24:57.746 27125 kbps 00:21:01.301 26549 kbps 00:20:56.338 131282 bytes 320016 bytes 00:24:34.556
6 0:25:09.090 0:05:35.168 25131 kbps 32575 kbps 00:25:55.262 27928 kbps 00:25:33.907 26842 kbps 00:25:25.649 131024 bytes 277342 bytes 00:30:39.963
7 0:30:44.259 0:04:16.297 25360 kbps 36488 kbps 00:31:23.715 27396 kbps 00:31:19.168 26764 kbps 00:31:05.572 132213 bytes 325945 bytes 00:31:23.756
8 0:35:00.556 0:05:57.190 25438 kbps 34142 kbps 00:38:04.156 27893 kbps 00:35:03.601 27372 kbps 00:35:02.725 132622 bytes 306770 bytes 00:38:04.282
9 0:40:57.746 0:08:15.369 24968 kbps 31926 kbps 00:43:40.117 27690 kbps 00:41:13.095 26842 kbps 00:42:32.508 130170 bytes 284005 bytes 00:48:35.954
10 0:49:13.116 0:06:09.702 24953 kbps 38261 kbps 00:49:36.807 27231 kbps 00:55:05.844 27140 kbps 00:55:00.839 130094 bytes 315525 bytes 00:49:37.015
11 0:55:22.819 0:06:57.416 24971 kbps 34147 kbps 00:56:55.453 27696 kbps 00:56:55.286 26505 kbps 00:57:19.978 130189 bytes 308993 bytes 00:59:09.337
12 1:02:20.236 0:04:27.141 24566 kbps 30913 kbps 01:02:29.579 26957 kbps 01:06:36.575 26502 kbps 01:06:33.280 128076 bytes 288471 bytes 01:06:12.051
13 1:06:47.378 0:04:47.912 25011 kbps 32265 kbps 01:11:31.870 26737 kbps 01:06:48.045 26230 kbps 01:10:34.897 130394 bytes 289229 bytes 01:11:26.240
14 1:11:35.291 0:07:10.430 25110 kbps 32239 kbps 01:17:36.443 28383 kbps 01:17:35.901 26906 kbps 01:17:36.151 130912 bytes 296244 bytes 01:13:04.213
15 1:18:45.721 0:04:43.241 24885 kbps 30513 kbps 01:23:11.111 28412 kbps 01:23:10.276 26614 kbps 01:20:59.187 129738 bytes 254193 bytes 01:19:21.089
16 1:23:28.962 0:05:20.194 26074 kbps 32261 kbps 01:26:16.462 28207 kbps 01:26:28.308 27785 kbps 01:24:52.087 135939 bytes 262430 bytes 01:26:30.768
17 1:28:49.157 0:06:58.209 25330 kbps 32717 kbps 01:31:58.721 27483 kbps 01:28:56.247 26677 kbps 01:31:58.304 132061 bytes 278336 bytes 01:35:10.287
18 1:35:47.366 0:17:37.639 25241 kbps 33379 kbps 01:42:22.177 28350 kbps 01:42:22.177 27244 kbps 01:42:09.414 131597 bytes 354597 bytes 01:42:14.002
19 1:53:25.006 0:06:02.445 25364 kbps 40752 kbps 01:54:43.751 30665 kbps 01:54:43.668 27873 kbps 01:54:39.956 132235 bytes 294031 bytes 01:54:43.918
20 1:59:27.451 0:09:11.175 25379 kbps 33336 kbps 02:06:52.646 29418 kbps 02:06:55.524 27909 kbps 02:06:52.646 132314 bytes 318317 bytes 02:01:42.837
21 2:08:38.627 0:10:27.501 21549 kbps 33232 kbps 02:14:27.893 29973 kbps 02:15:23.824 29387 kbps 02:15:23.824 112354 bytes 330867 bytes 02:14:52.667

STREAM DIAGNOSTICS:

File PID Type Codec Language Seconds Bitrate Bytes Packets
---- --- ---- ----- -------- -------------- -------------- ------------- -----
00001.M2TS 4113 (0x1011) 0x1B AVC 8346,004 24890 25966306046 141238662
00001.M2TS 4352 (0x1100) 0x80 LPCM eng (English) 8346,004 2315 2415621684 13382967
00001.M2TS 4353 (0x1101) 0x82 DTS eng (English) 8346,004 1512 1577731932 9409932[/code]
<---- END FORUMS PASTE ---->

QUICK SUMMARY:

Disc Title: clapton_winwood
Disc Size: 43819219282 bytes
Protection: AACS
BD-Java: Yes
Playlist: 00001.MPLS
Size: 31565420544 bytes
Length: 2:19:06
Total Bitrate: 30,26 Mbps
Video: MPEG-4 AVC Video / 24889 kbps / 1080p / 23,976 fps / 16:9 / High Profile 4.1
Audio: DTS Audio / English / 1509 kbps / 5.1 / 48 kHz / 1509 kbps / 24-bit
Audio: LPCM Audio / English / 2304 kbps / 2.0 / 48 kHz / 2304 kbps / 24-bit

********************
PLAYLIST: 01001.MPLS
********************

<--- BEGIN FORUMS PASTE --->
[code]Total Video
Title Codec Length Movie Size Disc Size Bitrate Bitrate Main Audio Track Secondary Audio Track
----- ------ ------- -------------- -------------- ------- ------- ------------------ ---------------------
01001.MPLS AVC 2:19:06 31565420544 43819219282 30,26 24,89 DTS 5.1 1509Kbps (48kHz/24-bit) LPCM 2.0 2304Kbps (48kHz/24-bit)[/code]
[code]DISC INFO:

Disc Title: clapton_winwood
Disc Size: 43819219282 bytes
Protection: AACS
BD-Java: Yes
BDInfo: 0.5.2

PLAYLIST REPORT:

Name: 01001.MPLS
Size: 31565420544 bytes
Length: 2:19:06 (h:m:s)
Total Bitrate: 30,26 Mbps
Description:

VIDEO:

Codec Bitrate Description
----- ------- -----------
MPEG-4 AVC Video 24889 kbps 1080p / 23,976 fps / 16:9 / High Profile 4.1

AUDIO:

Codec Language Bitrate Description
----- -------- ------- -----------
DTS Audio English 1509 kbps 5.1 / 48 kHz / 1509 kbps / 24-bit
LPCM Audio English 2304 kbps 2.0 / 48 kHz / 2304 kbps / 24-bit

FILES:

Name Time In Length Size Total Bitrate
---- ------- ------ ---- -------------
00001.M2TS 0:00:00.000 2:19:06.129 31565420544 30256

CHAPTERS:

Number Time In Length Avg Video Rate Max 1-Sec Rate Max 1-Sec Time Max 5-Sec Rate Max 5-Sec Time Max 10Sec Rate Max 10Sec Time Avg Frame Size Max Frame Size Max Frame Time
------ ------- ------ -------------- -------------- -------------- -------------- -------------- -------------- -------------- -------------- -------------- --------------
1 0:00:00.000 0:02:12.006 23201 kbps 33874 kbps 00:01:35.261 30712 kbps 00:01:09.319 30207 kbps 00:00:24.649 120922 bytes 378174 bytes 00:01:14.324
2 0:02:12.006 0:08:26.964 24809 kbps 34868 kbps 00:09:23.563 28129 kbps 00:09:36.158 27373 kbps 00:09:36.284 129342 bytes 392004 bytes 00:03:44.766
3 0:10:38.971 0:05:47.013 25412 kbps 32997 kbps 00:12:32.752 28533 kbps 00:11:16.384 27414 kbps 00:14:47.052 132489 bytes 313157 bytes 00:14:10.432
4 0:16:25.984 0:03:54.025 25659 kbps 39328 kbps 00:17:45.856 28519 kbps 00:17:54.364 27253 kbps 00:19:18.490 133773 bytes 345721 bytes 00:17:45.898
5 0:20:20.010 0:04:49.080 25181 kbps 32840 kbps 00:24:57.746 27125 kbps 00:21:01.301 26549 kbps 00:20:56.338 131282 bytes 320016 bytes 00:24:34.556
6 0:25:09.090 0:05:35.168 25131 kbps 32575 kbps 00:25:55.262 27928 kbps 00:25:33.907 26842 kbps 00:25:25.649 131024 bytes 277342 bytes 00:30:39.963
7 0:30:44.259 0:04:16.297 25360 kbps 36488 kbps 00:31:23.715 27396 kbps 00:31:19.168 26764 kbps 00:31:05.572 132213 bytes 325945 bytes 00:31:23.756
8 0:35:00.556 0:05:57.190 25438 kbps 34142 kbps 00:38:04.156 27893 kbps 00:35:03.601 27372 kbps 00:35:02.725 132622 bytes 306770 bytes 00:38:04.282
9 0:40:57.746 0:08:15.369 24968 kbps 31926 kbps 00:43:40.117 27690 kbps 00:41:13.095 26842 kbps 00:42:32.508 130170 bytes 284005 bytes 00:48:35.954
10 0:49:13.116 0:06:09.702 24953 kbps 38261 kbps 00:49:36.807 27231 kbps 00:55:05.844 27140 kbps 00:55:00.839 130094 bytes 315525 bytes 00:49:37.015
11 0:55:22.819 0:06:57.416 24971 kbps 34147 kbps 00:56:55.453 27696 kbps 00:56:55.286 26505 kbps 00:57:19.978 130189 bytes 308993 bytes 00:59:09.337
12 1:02:20.236 0:04:27.141 24566 kbps 30913 kbps 01:02:29.579 26957 kbps 01:06:36.575 26502 kbps 01:06:33.280 128076 bytes 288471 bytes 01:06:12.051
13 1:06:47.378 0:04:47.912 25011 kbps 32265 kbps 01:11:31.870 26737 kbps 01:06:48.045 26230 kbps 01:10:34.897 130394 bytes 289229 bytes 01:11:26.240
14 1:11:35.291 0:07:10.430 25110 kbps 32239 kbps 01:17:36.443 28383 kbps 01:17:35.901 26906 kbps 01:17:36.151 130912 bytes 296244 bytes 01:13:04.213
15 1:18:45.721 0:04:43.241 24885 kbps 30513 kbps 01:23:11.111 28412 kbps 01:23:10.276 26614 kbps 01:20:59.187 129738 bytes 254193 bytes 01:19:21.089
16 1:23:28.962 0:05:20.194 26074 kbps 32261 kbps 01:26:16.462 28207 kbps 01:26:28.308 27785 kbps 01:24:52.087 135939 bytes 262430 bytes 01:26:30.768
17 1:28:49.157 0:06:58.209 25330 kbps 32717 kbps 01:31:58.721 27483 kbps 01:28:56.247 26677 kbps 01:31:58.304 132061 bytes 278336 bytes 01:35:10.287
18 1:35:47.366 0:17:37.639 25241 kbps 33379 kbps 01:42:22.177 28350 kbps 01:42:22.177 27244 kbps 01:42:09.414 131597 bytes 354597 bytes 01:42:14.002
19 1:53:25.006 0:06:02.445 25364 kbps 40752 kbps 01:54:43.751 30665 kbps 01:54:43.668 27873 kbps 01:54:39.956 132235 bytes 294031 bytes 01:54:43.918
20 1:59:27.451 0:09:11.175 25379 kbps 33336 kbps 02:06:52.646 29418 kbps 02:06:55.524 27909 kbps 02:06:52.646 132314 bytes 318317 bytes 02:01:42.837
21 2:08:38.627 0:10:27.501 21549 kbps 33232 kbps 02:14:27.893 29973 kbps 02:15:23.824 29387 kbps 02:15:23.824 112354 bytes 330867 bytes 02:14:52.667

STREAM DIAGNOSTICS:

File PID Type Codec Language Seconds Bitrate Bytes Packets
---- --- ---- ----- -------- -------------- -------------- ------------- -----
00001.M2TS 4113 (0x1011) 0x1B AVC 8346,004 24890 25966306046 141238662
00001.M2TS 4352 (0x1100) 0x80 LPCM eng (English) 8346,004 2315 2415621684 13382967
00001.M2TS 4353 (0x1101) 0x82 DTS eng (English) 8346,004 1512 1577731932 9409932[/code]
<---- END FORUMS PASTE ---->

QUICK SUMMARY:

Disc Title: clapton_winwood
Disc Size: 43819219282 bytes
Protection: AACS
BD-Java: Yes
Playlist: 01001.MPLS
Size: 31565420544 bytes
Length: 2:19:06
Total Bitrate: 30,26 Mbps
Video: MPEG-4 AVC Video / 24889 kbps / 1080p / 23,976 fps / 16:9 / High Profile 4.1
Audio: DTS Audio / English / 1509 kbps / 5.1 / 48 kHz / 1509 kbps / 24-bit
Audio: LPCM Audio / English / 2304 kbps / 2.0 / 48 kHz / 2304 kbps / 24-bit

********************
PLAYLIST: 00002.MPLS
********************

<--- BEGIN FORUMS PASTE --->
[code]Total Video
Title Codec Length Movie Size Disc Size Bitrate Bitrate Main Audio Track Secondary Audio Track
----- ------ ------- -------------- -------------- ------- ------- ------------------ ---------------------
00002.MPLS AVC 0:37:04 7559264256 43819219282 27,18 21,90 DTS 5.1 1509Kbps (48kHz/24-bit) LPCM 2.0 2304Kbps (48kHz/24-bit)[/code]
[code]DISC INFO:

Disc Title: clapton_winwood
Disc Size: 43819219282 bytes
Protection: AACS
BD-Java: Yes
BDInfo: 0.5.2

PLAYLIST REPORT:

Name: 00002.MPLS
Size: 7559264256 bytes
Length: 0:37:04 (h:m:s)
Total Bitrate: 27,18 Mbps
Description:

VIDEO:

Codec Bitrate Description
----- ------- -----------
MPEG-4 AVC Video 21899 kbps 1080p / 23,976 fps / 16:9 / High Profile 4.1

AUDIO:

Codec Language Bitrate Description
----- -------- ------- -----------
DTS Audio English 1509 kbps 5.1 / 48 kHz / 1509 kbps / 24-bit
LPCM Audio English 2304 kbps 2.0 / 48 kHz / 2304 kbps / 24-bit

FILES:

Name Time In Length Size Total Bitrate
---- ------- ------ ---- -------------
00002.M2TS 0:00:00.000 0:37:04.847 7559264256 27181

CHAPTERS:

Number Time In Length Avg Video Rate Max 1-Sec Rate Max 1-Sec Time Max 5-Sec Rate Max 5-Sec Time Max 10Sec Rate Max 10Sec Time Avg Frame Size Max Frame Size Max Frame Time
------ ------- ------ -------------- -------------- -------------- -------------- -------------- -------------- -------------- -------------- -------------- --------------
1 0:00:00.000 0:37:04.847 21899 kbps 42592 kbps 00:04:27.517 28176 kbps 00:13:23.803 26969 kbps 00:29:50.789 114175 bytes 760152 bytes 00:19:14.653

STREAM DIAGNOSTICS:

File PID Type Codec Language Seconds Bitrate Bytes Packets
---- --- ---- ----- -------- -------------- -------------- ------------- -----
00002.M2TS 4113 (0x1011) 0x1B AVC 2224,764 21900 6090308300 33130872
00002.M2TS 4352 (0x1100) 0x80 LPCM eng (English) 2224,764 2340 650735820 3605199
00002.M2TS 4353 (0x1101) 0x82 DTS eng (English) 2224,764 1528 425024940 2534940[/code]
<---- END FORUMS PASTE ---->

QUICK SUMMARY:

Disc Title: clapton_winwood
Disc Size: 43819219282 bytes
Protection: AACS
BD-Java: Yes
Playlist: 00002.MPLS
Size: 7559264256 bytes
Length: 0:37:04
Total Bitrate: 27,18 Mbps
Video: MPEG-4 AVC Video / 21899 kbps / 1080p / 23,976 fps / 16:9 / High Profile 4.1
Audio: DTS Audio / English / 1509 kbps / 5.1 / 48 kHz / 1509 kbps / 24-bit
Audio: LPCM Audio / English / 2304 kbps / 2.0 / 48 kHz / 2304 kbps / 24-bit

********************
PLAYLIST: 01002.MPLS
********************

<--- BEGIN FORUMS PASTE --->
[code]Total Video
Title Codec Length Movie Size Disc Size Bitrate Bitrate Main Audio Track Secondary Audio Track
----- ------ ------- -------------- -------------- ------- ------- ------------------ ---------------------
01002.MPLS AVC 0:37:04 7559264256 43819219282 27,18 21,90 DTS 5.1 1509Kbps (48kHz/24-bit) LPCM 2.0 2304Kbps (48kHz/24-bit)[/code]
[code]DISC INFO:

Disc Title: clapton_winwood
Disc Size: 43819219282 bytes
Protection: AACS
BD-Java: Yes
BDInfo: 0.5.2

PLAYLIST REPORT:

Name: 01002.MPLS
Size: 7559264256 bytes
Length: 0:37:04 (h:m:s)
Total Bitrate: 27,18 Mbps
Description:

VIDEO:

Codec Bitrate Description
----- ------- -----------
MPEG-4 AVC Video 21899 kbps 1080p / 23,976 fps / 16:9 / High Profile 4.1

AUDIO:

Codec Language Bitrate Description
----- -------- ------- -----------
DTS Audio English 1509 kbps 5.1 / 48 kHz / 1509 kbps / 24-bit
LPCM Audio English 2304 kbps 2.0 / 48 kHz / 2304 kbps / 24-bit

FILES:

Name Time In Length Size Total Bitrate
---- ------- ------ ---- -------------
00002.M2TS 0:00:00.000 0:37:04.847 7559264256 27181

CHAPTERS:

Number Time In Length Avg Video Rate Max 1-Sec Rate Max 1-Sec Time Max 5-Sec Rate Max 5-Sec Time Max 10Sec Rate Max 10Sec Time Avg Frame Size Max Frame Size Max Frame Time
------ ------- ------ -------------- -------------- -------------- -------------- -------------- -------------- -------------- -------------- -------------- --------------
1 0:00:00.000 0:37:04.847 21899 kbps 42592 kbps 00:04:27.517 28176 kbps 00:13:23.803 26969 kbps 00:29:50.789 114175 bytes 760152 bytes 00:19:14.653

STREAM DIAGNOSTICS:

File PID Type Codec Language Seconds Bitrate Bytes Packets
---- --- ---- ----- -------- -------------- -------------- ------------- -----
00002.M2TS 4113 (0x1011) 0x1B AVC 2224,764 21900 6090308300 33130872
00002.M2TS 4352 (0x1100) 0x80 LPCM eng (English) 2224,764 2340 650735820 3605199
00002.M2TS 4353 (0x1101) 0x82 DTS eng (English) 2224,764 1528 425024940 2534940[/code]
<---- END FORUMS PASTE ---->

QUICK SUMMARY:

Disc Title: clapton_winwood
Disc Size: 43819219282 bytes
Protection: AACS
BD-Java: Yes
Playlist: 01002.MPLS
Size: 7559264256 bytes
Length: 0:37:04
Total Bitrate: 27,18 Mbps
Video: MPEG-4 AVC Video / 21899 kbps / 1080p / 23,976 fps / 16:9 / High Profile 4.1
Audio: DTS Audio / English / 1509 kbps / 5.1 / 48 kHz / 1509 kbps / 24-bit
Audio: LPCM Audio / English / 2304 kbps / 2.0 / 48 kHz / 2304 kbps / 24-bit

********************
PLAYLIST: 00004.MPLS
********************

<--- BEGIN FORUMS PASTE --->
[code]Total Video
Title Codec Length Movie Size Disc Size Bitrate Bitrate Main Audio Track Secondary Audio Track
----- ------ ------- -------------- -------------- ------- ------- ------------------ ---------------------
00004.MPLS AVC 0:15:29 3173148672 43819219282 27,30 21,93 DTS 5.1 1509Kbps (48kHz/24-bit) LPCM 2.0 2304Kbps (48kHz/24-bit)[/code]
[code]DISC INFO:

Disc Title: clapton_winwood
Disc Size: 43819219282 bytes
Protection: AACS
BD-Java: Yes
BDInfo: 0.5.2

PLAYLIST REPORT:

Name: 00004.MPLS
Size: 3173148672 bytes
Length: 0:15:29 (h:m:s)
Total Bitrate: 27,30 Mbps
Description:

VIDEO:

Codec Bitrate Description
----- ------- -----------
MPEG-4 AVC Video 21927 kbps 1080p / 23,976 fps / 16:9 / High Profile 4.1

AUDIO:

Codec Language Bitrate Description
----- -------- ------- -----------
DTS Audio English 1509 kbps 5.1 / 48 kHz / 1509 kbps / 24-bit
LPCM Audio English 2304 kbps 2.0 / 48 kHz / 2304 kbps / 24-bit

FILES:

Name Time In Length Size Total Bitrate
---- ------- ------ ---- -------------
00004.M2TS 0:00:00.000 0:15:29.762 3173148672 27303

CHAPTERS:

Number Time In Length Avg Video Rate Max 1-Sec Rate Max 1-Sec Time Max 5-Sec Rate Max 5-Sec Time Max 10Sec Rate Max 10Sec Time Avg Frame Size Max Frame Size Max Frame Time
------ ------- ------ -------------- -------------- -------------- -------------- -------------- -------------- -------------- -------------- -------------- --------------
1 0:00:00.000 0:04:27.267 22190 kbps 34833 kbps 00:00:04.587 27186 kbps 00:01:07.317 25971 kbps 00:00:09.884 115670 bytes 270944 bytes 00:00:02.168
2 0:04:27.267 0:03:08.605 22460 kbps 32430 kbps 00:04:29.227 29732 kbps 00:04:32.981 29278 kbps 00:04:28.184 117098 bytes 252933 bytes 00:04:28.601
3 0:07:35.872 0:07:53.890 21566 kbps 36045 kbps 00:07:36.539 26521 kbps 00:10:19.410 25773 kbps 00:10:14.405 112454 bytes 299793 bytes 00:07:36.998

STREAM DIAGNOSTICS:

File PID Type Codec Language Seconds Bitrate Bytes Packets
---- --- ---- ----- -------- -------------- -------------- ------------- -----
00004.M2TS 4113 (0x1011) 0x1B AVC 929,679 21929 2548330073 13862691
00004.M2TS 4352 (0x1100) 0x80 LPCM eng (English) 929,679 2391 277814340 1539138
00004.M2TS 4353 (0x1101) 0x82 DTS eng (English) 929,679 1561 181454232 1082232[/code]
<---- END FORUMS PASTE ---->

QUICK SUMMARY:

Disc Title: clapton_winwood
Disc Size: 43819219282 bytes
Protection: AACS
BD-Java: Yes
Playlist: 00004.MPLS
Size: 3173148672 bytes
Length: 0:15:29
Total Bitrate: 27,30 Mbps
Video: MPEG-4 AVC Video / 21927 kbps / 1080p / 23,976 fps / 16:9 / High Profile 4.1
Audio: DTS Audio / English / 1509 kbps / 5.1 / 48 kHz / 1509 kbps / 24-bit
Audio: LPCM Audio / English / 2304 kbps / 2.0 / 48 kHz / 2304 kbps / 24-bit

********************
PLAYLIST: 01004.MPLS
********************

<--- BEGIN FORUMS PASTE --->
[code]Total Video
Title Codec Length Movie Size Disc Size Bitrate Bitrate Main Audio Track Secondary Audio Track
----- ------ ------- -------------- -------------- ------- ------- ------------------ ---------------------
01004.MPLS AVC 0:15:29 3173148672 43819219282 27,30 21,93 DTS 5.1 1509Kbps (48kHz/24-bit) LPCM 2.0 2304Kbps (48kHz/24-bit)[/code]
[code]DISC INFO:

Disc Title: clapton_winwood
Disc Size: 43819219282 bytes
Protection: AACS
BD-Java: Yes
BDInfo: 0.5.2

PLAYLIST REPORT:

Name: 01004.MPLS
Size: 3173148672 bytes
Length: 0:15:29 (h:m:s)
Total Bitrate: 27,30 Mbps
Description:

VIDEO:

Codec Bitrate Description
----- ------- -----------
MPEG-4 AVC Video 21927 kbps 1080p / 23,976 fps / 16:9 / High Profile 4.1

AUDIO:

Codec Language Bitrate Description
----- -------- ------- -----------
DTS Audio English 1509 kbps 5.1 / 48 kHz / 1509 kbps / 24-bit
LPCM Audio English 2304 kbps 2.0 / 48 kHz / 2304 kbps / 24-bit

FILES:

Name Time In Length Size Total Bitrate
---- ------- ------ ---- -------------
00004.M2TS 0:00:00.000 0:15:29.762 3173148672 27303

CHAPTERS:

Number Time In Length Avg Video Rate Max 1-Sec Rate Max 1-Sec Time Max 5-Sec Rate Max 5-Sec Time Max 10Sec Rate Max 10Sec Time Avg Frame Size Max Frame Size Max Frame Time
------ ------- ------ -------------- -------------- -------------- -------------- -------------- -------------- -------------- -------------- -------------- --------------
1 0:00:00.000 0:04:27.267 22190 kbps 34833 kbps 00:00:04.587 27186 kbps 00:01:07.317 25971 kbps 00:00:09.884 115670 bytes 270944 bytes 00:00:02.168
2 0:04:27.267 0:03:08.605 22460 kbps 32430 kbps 00:04:29.227 29732 kbps 00:04:32.981 29278 kbps 00:04:28.184 117098 bytes 252933 bytes 00:04:28.601
3 0:07:35.872 0:07:53.890 21566 kbps 36045 kbps 00:07:36.539 26521 kbps 00:10:19.410 25773 kbps 00:10:14.405 112454 bytes 299793 bytes 00:07:36.998

STREAM DIAGNOSTICS:

File PID Type Codec Language Seconds Bitrate Bytes Packets
---- --- ---- ----- -------- -------------- -------------- ------------- -----
00004.M2TS 4113 (0x1011) 0x1B AVC 929,679 21929 2548330073 13862691
00004.M2TS 4352 (0x1100) 0x80 LPCM eng (English) 929,679 2391 277814340 1539138
00004.M2TS 4353 (0x1101) 0x82 DTS eng (English) 929,679 1561 181454232 1082232[/code]
<---- END FORUMS PASTE ---->

QUICK SUMMARY:

Disc Title: clapton_winwood
Disc Size: 43819219282 bytes
Protection: AACS
BD-Java: Yes
Playlist: 01004.MPLS
Size: 3173148672 bytes
Length: 0:15:29
Total Bitrate: 27,30 Mbps
Video: MPEG-4 AVC Video / 21927 kbps / 1080p / 23,976 fps / 16:9 / High Profile 4.1
Audio: DTS Audio / English / 1509 kbps / 5.1 / 48 kHz / 1509 kbps / 24-bit
Audio: LPCM Audio / English / 2304 kbps / 2.0 / 48 kHz / 2304 kbps / 24-bit

********************
PLAYLIST: 00003.MPLS
********************

<--- BEGIN FORUMS PASTE --->
[code]Total Video
Title Codec Length Movie Size Disc Size Bitrate Bitrate Main Audio Track Secondary Audio Track
----- ------ ------- -------------- -------------- ------- ------- ------------------ ---------------------
00003.MPLS AVC 0:05:58 1204758528 43819219282 26,85 21,61 DTS 5.1 1509Kbps (48kHz/24-bit) LPCM 2.0 2304Kbps (48kHz/24-bit)[/code]
[code]DISC INFO:

Disc Title: clapton_winwood
Disc Size: 43819219282 bytes
Protection: AACS
BD-Java: Yes
BDInfo: 0.5.2

PLAYLIST REPORT:

Name: 00003.MPLS
Size: 1204758528 bytes
Length: 0:05:58 (h:m:s)
Total Bitrate: 26,85 Mbps
Description:

VIDEO:

Codec Bitrate Description
----- ------- -----------
MPEG-4 AVC Video 21610 kbps 1080p / 23,976 fps / 16:9 / High Profile 4.1

AUDIO:

Codec Language Bitrate Description
----- -------- ------- -----------
DTS Audio English 1509 kbps 5.1 / 48 kHz / 1509 kbps / 24-bit
LPCM Audio English 2304 kbps 2.0 / 48 kHz / 2304 kbps / 24-bit

FILES:

Name Time In Length Size Total Bitrate
---- ------- ------ ---- -------------
00003.M2TS 0:00:00.000 0:05:58.900 1204758528 26854

CHAPTERS:

Number Time In Length Avg Video Rate Max 1-Sec Rate Max 1-Sec Time Max 5-Sec Rate Max 5-Sec Time Max 10Sec Rate Max 10Sec Time Avg Frame Size Max Frame Size Max Frame Time
------ ------- ------ -------------- -------------- -------------- -------------- -------------- -------------- -------------- -------------- -------------- --------------
1 0:00:00.000 0:05:58.900 21610 kbps 38254 kbps 00:02:14.551 28821 kbps 00:02:12.507 25765 kbps 00:02:07.502 112678 bytes 406991 bytes 00:00:02.502

STREAM DIAGNOSTICS:

File PID Type Codec Language Seconds Bitrate Bytes Packets
---- --- ---- ----- -------- -------------- -------------- ------------- -----
00003.M2TS 4113 (0x1011) 0x1B AVC 358,817 21615 969478167 5273968
00003.M2TS 4352 (0x1100) 0x80 LPCM eng (English) 358,817 2327 104361060 578178
00003.M2TS 4353 (0x1101) 0x82 DTS eng (English) 358,817 1520 68166560 406560[/code]
<---- END FORUMS PASTE ---->

QUICK SUMMARY:

Disc Title: clapton_winwood
Disc Size: 43819219282 bytes
Protection: AACS
BD-Java: Yes
Playlist: 00003.MPLS
Size: 1204758528 bytes
Length: 0:05:58
Total Bitrate: 26,85 Mbps
Video: MPEG-4 AVC Video / 21610 kbps / 1080p / 23,976 fps / 16:9 / High Profile 4.1
Audio: DTS Audio / English / 1509 kbps / 5.1 / 48 kHz / 1509 kbps / 24-bit
Audio: LPCM Audio / English / 2304 kbps / 2.0 / 48 kHz / 2304 kbps / 24-bit

********************
PLAYLIST: 01003.MPLS
********************

<--- BEGIN FORUMS PASTE --->
[code]Total Video
Title Codec Length Movie Size Disc Size Bitrate Bitrate Main Audio Track Secondary Audio Track
----- ------ ------- -------------- -------------- ------- ------- ------------------ ---------------------
01003.MPLS AVC 0:05:58 1204758528 43819219282 26,85 21,61 DTS 5.1 1509Kbps (48kHz/24-bit) LPCM 2.0 2304Kbps (48kHz/24-bit)[/code]
[code]DISC INFO:

Disc Title: clapton_winwood
Disc Size: 43819219282 bytes
Protection: AACS
BD-Java: Yes
BDInfo: 0.5.2

PLAYLIST REPORT:

Name: 01003.MPLS
Size: 1204758528 bytes
Length: 0:05:58 (h:m:s)
Total Bitrate: 26,85 Mbps
Description:

VIDEO:

Codec Bitrate Description
----- ------- -----------
MPEG-4 AVC Video 21610 kbps 1080p / 23,976 fps / 16:9 / High Profile 4.1

AUDIO:

Codec Language Bitrate Description
----- -------- ------- -----------
DTS Audio English 1509 kbps 5.1 / 48 kHz / 1509 kbps / 24-bit
LPCM Audio English 2304 kbps 2.0 / 48 kHz / 2304 kbps / 24-bit

FILES:

Name Time In Length Size Total Bitrate
---- ------- ------ ---- -------------
00003.M2TS 0:00:00.000 0:05:58.900 1204758528 26854

CHAPTERS:

Number Time In Length Avg Video Rate Max 1-Sec Rate Max 1-Sec Time Max 5-Sec Rate Max 5-Sec Time Max 10Sec Rate Max 10Sec Time Avg Frame Size Max Frame Size Max Frame Time
------ ------- ------ -------------- -------------- -------------- -------------- -------------- -------------- -------------- -------------- -------------- --------------
1 0:00:00.000 0:05:58.900 21610 kbps 38254 kbps 00:02:14.551 28821 kbps 00:02:12.507 25765 kbps 00:02:07.502 112678 bytes 406991 bytes 00:00:02.502

STREAM DIAGNOSTICS:

File PID Type Codec Language Seconds Bitrate Bytes Packets
---- --- ---- ----- -------- -------------- -------------- ------------- -----
00003.M2TS 4113 (0x1011) 0x1B AVC 358,817 21615 969478167 5273968
00003.M2TS 4352 (0x1100) 0x80 LPCM eng (English) 358,817 2327 104361060 578178
00003.M2TS 4353 (0x1101) 0x82 DTS eng (English) 358,817 1520 68166560 406560[/code]
<---- END FORUMS PASTE ---->

QUICK SUMMARY:

Disc Title: clapton_winwood
Disc Size: 43819219282 bytes
Protection: AACS
BD-Java: Yes
Playlist: 01003.MPLS
Size: 1204758528 bytes
Length: 0:05:58
Total Bitrate: 26,85 Mbps
Video: MPEG-4 AVC Video / 21610 kbps / 1080p / 23,976 fps / 16:9 / High Profile 4.1
Audio: DTS Audio / English / 1509 kbps / 5.1 / 48 kHz / 1509 kbps / 24-bit
Audio: LPCM Audio / English / 2304 kbps / 2.0 / 48 kHz / 2304 kbps / 24-bit

********************
PLAYLIST: 00000.MPLS
********************

<--- BEGIN FORUMS PASTE --->
[code]Total Video
Title Codec Length Movie Size Disc Size Bitrate Bitrate Main Audio Track Secondary Audio Track
----- ------ ------- -------------- -------------- ------- ------- ------------------ ---------------------
00000.MPLS AVC 0:01:01 236384256 43819219282 30,94 24,92 LPCM 2.0 2304Kbps (48kHz/24-bit) LPCM 2.0 2304Kbps (48kHz/24-bit)[/code]
[code]DISC INFO:

Disc Title: clapton_winwood
Disc Size: 43819219282 bytes
Protection: AACS
BD-Java: Yes
BDInfo: 0.5.2

PLAYLIST REPORT:

Name: 00000.MPLS
Size: 236384256 bytes
Length: 0:01:01 (h:m:s)
Total Bitrate: 30,94 Mbps
Description:

VIDEO:

Codec Bitrate Description
----- ------- -----------
MPEG-4 AVC Video 24924 kbps 1080p / 24 fps / 16:9 / High Profile 4.1

AUDIO:

Codec Language Bitrate Description
----- -------- ------- -----------
LPCM Audio English 2304 kbps 2.0 / 48 kHz / 2304 kbps / 24-bit
LPCM Audio English 2304 kbps 2.0 / 48 kHz / 2304 kbps / 24-bit

FILES:

Name Time In Length Size Total Bitrate
---- ------- ------ ---- -------------
00000.M2TS 0:00:00.000 0:01:01.125 236384256 30938

CHAPTERS:

Number Time In Length Avg Video Rate Max 1-Sec Rate Max 1-Sec Time Max 5-Sec Rate Max 5-Sec Time Max 10Sec Rate Max 10Sec Time Avg Frame Size Max Frame Size Max Frame Time
------ ------- ------ -------------- -------------- -------------- -------------- -------------- -------------- -------------- -------------- -------------- --------------
1 0:00:00.000 0:00:59.000 25441 kbps 30602 kbps 00:00:00.-041 27165 kbps 00:00:43.916 26409 kbps 00:00:00.-041 132412 bytes 313951 bytes 00:00:00.791
2 0:00:59.000 0:00:02.125 10576 kbps 21542 kbps 00:00:59.000 0 kbps 00:00:00.000 0 kbps 00:00:00.000 57330 bytes 236579 bytes 00:00:59.875

STREAM DIAGNOSTICS:

File PID Type Codec Language Seconds Bitrate Bytes Packets
---- --- ---- ----- -------- -------------- -------------- ------------- -----
00000.M2TS 4113 (0x1011) 0x1B AVC 61,042 24958 190437032 1035848
00000.M2TS 4352 (0x1100) 0x80 LPCM eng (English) 61,042 2278 17385202 96317
00000.M2TS 4353 (0x1101) 0x80 LPCM eng (English) 61,042 2278 17385202 96317[/code]
<---- END FORUMS PASTE ---->

QUICK SUMMARY:

Disc Title: clapton_winwood
Disc Size: 43819219282 bytes
Protection: AACS
BD-Java: Yes
Playlist: 00000.MPLS
Size: 236384256 bytes
Length: 0:01:01
Total Bitrate: 30,94 Mbps
Video: MPEG-4 AVC Video / 24924 kbps / 1080p / 24 fps / 16:9 / High Profile 4.1
Audio: LPCM Audio / English / 2304 kbps / 2.0 / 48 kHz / 2304 kbps / 24-bit
Audio: LPCM Audio / English / 2304 kbps / 2.0 / 48 kHz / 2304 kbps / 24-bit

********************
PLAYLIST: 01000.MPLS
********************

<--- BEGIN FORUMS PASTE --->
[code]Total Video
Title Codec Length Movie Size Disc Size Bitrate Bitrate Main Audio Track Secondary Audio Track
----- ------ ------- -------------- -------------- ------- ------- ------------------ ---------------------
01000.MPLS AVC 0:01:01 236384256 43819219282 30,94 24,92 LPCM 2.0 2304Kbps (48kHz/24-bit) LPCM 2.0 2304Kbps (48kHz/24-bit)[/code]
[code]DISC INFO:

Disc Title: clapton_winwood
Disc Size: 43819219282 bytes
Protection: AACS
BD-Java: Yes
BDInfo: 0.5.2

PLAYLIST REPORT:

Name: 01000.MPLS
Size: 236384256 bytes
Length: 0:01:01 (h:m:s)
Total Bitrate: 30,94 Mbps
Description:

VIDEO:

Codec Bitrate Description
----- ------- -----------
MPEG-4 AVC Video 24924 kbps 1080p / 24 fps / 16:9 / High Profile 4.1

AUDIO:

Codec Language Bitrate Description
----- -------- ------- -----------
LPCM Audio English 2304 kbps 2.0 / 48 kHz / 2304 kbps / 24-bit
LPCM Audio English 2304 kbps 2.0 / 48 kHz / 2304 kbps / 24-bit

FILES:

Name Time In Length Size Total Bitrate
---- ------- ------ ---- -------------
00000.M2TS 0:00:00.000 0:01:01.125 236384256 30938

CHAPTERS:

Number Time In Length Avg Video Rate Max 1-Sec Rate Max 1-Sec Time Max 5-Sec Rate Max 5-Sec Time Max 10Sec Rate Max 10Sec Time Avg Frame Size Max Frame Size Max Frame Time
------ ------- ------ -------------- -------------- -------------- -------------- -------------- -------------- -------------- -------------- -------------- --------------
1 0:00:00.000 0:00:59.000 25441 kbps 30602 kbps 00:00:00.-041 27165 kbps 00:00:43.916 26409 kbps 00:00:00.-041 132412 bytes 313951 bytes 00:00:00.791
2 0:00:59.000 0:00:02.125 10576 kbps 21542 kbps 00:00:59.000 0 kbps 00:00:00.000 0 kbps 00:00:00.000 57330 bytes 236579 bytes 00:00:59.875

STREAM DIAGNOSTICS:

File PID Type Codec Language Seconds Bitrate Bytes Packets
---- --- ---- ----- -------- -------------- -------------- ------------- -----
00000.M2TS 4113 (0x1011) 0x1B AVC 61,042 24958 190437032 1035848
00000.M2TS 4352 (0x1100) 0x80 LPCM eng (English) 61,042 2278 17385202 96317
00000.M2TS 4353 (0x1101) 0x80 LPCM eng (English) 61,042 2278 17385202 96317[/code]
<---- END FORUMS PASTE ---->

QUICK SUMMARY:

Disc Title: clapton_winwood
Disc Size: 43819219282 bytes
Protection: AACS
BD-Java: Yes
Playlist: 01000.MPLS
Size: 236384256 bytes
Length: 0:01:01
Total Bitrate: 30,94 Mbps
Video: MPEG-4 AVC Video / 24924 kbps / 1080p / 24 fps / 16:9 / High Profile 4.1
Audio: LPCM Audio / English / 2304 kbps / 2.0 / 48 kHz / 2304 kbps / 24-bit
Audio: LPCM Audio / English / 2304 kbps / 2.0 / 48 kHz / 2304 kbps / 24-bit

********************
PLAYLIST: 00005.MPLS
********************

<--- BEGIN FORUMS PASTE --->
[code]Total Video
Title Codec Length Movie Size Disc Size Bitrate Bitrate Main Audio Track Secondary Audio Track
----- ------ ------- -------------- -------------- ------- ------- ------------------ ---------------------
00005.MPLS AVC 0:00:24 33742848 43819219282 11,24 10,68[/code]
[code]DISC INFO:

Disc Title: clapton_winwood
Disc Size: 43819219282 bytes
Protection: AACS
BD-Java: Yes
BDInfo: 0.5.2

PLAYLIST REPORT:

Name: 00005.MPLS
Size: 33742848 bytes
Length: 0:00:24 (h:m:s)
Total Bitrate: 11,24 Mbps
Description:

VIDEO:

Codec Bitrate Description
----- ------- -----------
MPEG-4 AVC Video 10676 kbps 1080i / 29,970 fps / 16:9 / High Profile 4.1

FILES:

Name Time In Length Size Total Bitrate
---- ------- ------ ---- -------------
00005.M2TS 0:00:00.000 0:00:24.007 33742848 11236

CHAPTERS:

Number Time In Length Avg Video Rate Max 1-Sec Rate Max 1-Sec Time Max 5-Sec Rate Max 5-Sec Time Max 10Sec Rate Max 10Sec Time Avg Frame Size Max Frame Size Max Frame Time
------ ------- ------ -------------- -------------- -------------- -------------- -------------- -------------- -------------- -------------- -------------- --------------
1 0:00:00.000 0:00:24.007 10683 kbps 49195 kbps 00:00:16.449 32779 kbps 00:00:16.549 21768 kbps 00:00:13.013 44527 bytes 412399 bytes 00:00:21.521

STREAM DIAGNOSTICS:

File PID Type Codec Language Seconds Bitrate Bytes Packets
---- --- ---- ----- -------- -------------- -------------- ------------- -----
00005.M2TS 4113 (0x1011) 0x1B AVC 23,957 10706 32059434 174683[/code]
<---- END FORUMS PASTE ---->

QUICK SUMMARY:

Disc Title: clapton_winwood
Disc Size: 43819219282 bytes
Protection: AACS
BD-Java: Yes
Playlist: 00005.MPLS
Size: 33742848 bytes
Length: 0:00:24
Total Bitrate: 11,24 Mbps
Video: MPEG-4 AVC Video / 10676 kbps / 1080i / 29,970 fps / 16:9 / High Profile 4.1

********************
PLAYLIST: 01005.MPLS
********************

<--- BEGIN FORUMS PASTE --->
[code]Total Video
Title Codec Length Movie Size Disc Size Bitrate Bitrate Main Audio Track Secondary Audio Track
----- ------ ------- -------------- -------------- ------- ------- ------------------ ---------------------
01005.MPLS AVC 0:00:24 33742848 43819219282 11,24 10,68[/code]
[code]DISC INFO:

Disc Title: clapton_winwood
Disc Size: 43819219282 bytes
Protection: AACS
BD-Java: Yes
BDInfo: 0.5.2

PLAYLIST REPORT:

Name: 01005.MPLS
Size: 33742848 bytes
Length: 0:00:24 (h:m:s)
Total Bitrate: 11,24 Mbps
Description:

VIDEO:

Codec Bitrate Description
----- ------- -----------
MPEG-4 AVC Video 10676 kbps 1080i / 29,970 fps / 16:9 / High Profile 4.1

FILES:

Name Time In Length Size Total Bitrate
---- ------- ------ ---- -------------
00005.M2TS 0:00:00.000 0:00:24.007 33742848 11236

CHAPTERS:

Number Time In Length Avg Video Rate Max 1-Sec Rate Max 1-Sec Time Max 5-Sec Rate Max 5-Sec Time Max 10Sec Rate Max 10Sec Time Avg Frame Size Max Frame Size Max Frame Time
------ ------- ------ -------------- -------------- -------------- -------------- -------------- -------------- -------------- -------------- -------------- --------------
1 0:00:00.000 0:00:24.007 10683 kbps 49195 kbps 00:00:16.449 32779 kbps 00:00:16.549 21768 kbps 00:00:13.013 44527 bytes 412399 bytes 00:00:21.521

STREAM DIAGNOSTICS:

File PID Type Codec Language Seconds Bitrate Bytes Packets
---- --- ---- ----- -------- -------------- -------------- ------------- -----
00005.M2TS 4113 (0x1011) 0x1B AVC 23,957 10706 32059434 174683[/code]
<---- END FORUMS PASTE ---->

QUICK SUMMARY:

Disc Title: clapton_winwood
Disc Size: 43819219282 bytes
Protection: AACS
BD-Java: Yes
Playlist: 01005.MPLS
Size: 33742848 bytes
Length: 0:00:24
Total Bitrate: 11,24 Mbps
Video: MPEG-4 AVC Video / 10676 kbps / 1080i / 29,970 fps / 16:9 / High Profile 4.1


 ·  , , FAQ-
:  [ 28--2011 21:59 ]

  

.torrent

.torrent 209 KB


: 40.81 GB
(hash) : 41e066fb64c7e006b17d6fa77128be292c1a53c6
··
...

Eric Clapton and Steve Winwood - Live from Madison Square Garden . !

!