Larry Carlton & Robben Ford - Autour du Blues torrent

, , - AdBlock. #!


21.04 GB   |    :  6 3    |    .torrent :  96    |   
1  
   
...
 

Galfimbul

avatar Galfimbul


Larry Carlton & Robben Ford - Autour du Blues

: 2009
: blues
: 101 min.

:
2006 "New Morning" , .

25 - , Autour du Blues ( ) : Larry Carlton Robben Ford.

.

"New Morning", , , .

, "Round About the Blues" ... Larry Carlton, Robben Ford, Francis Cabrel, Denys Lable, Michael Jones, Patrick Verbeke , -, , .

, .
01. Black Night
02. Got My Mojo Working
03. Rock Me Baby
04. Stormy Monday
05. Reconsider Baby
06. Ain't That Particular
07. You Gotta Move
08. Down in Mississippi
09. Mama Talk To Your Daughter
10. Blackjack
11. Bad Bad Whiskey
12. A Change Is Gonna Come
13. She Belongs To Me

Features:
01. So Fire
02. Hand In Hand With The Blues
: Blu-ray
: M2TS
: VC-1
: AAC
: VC-1 Video / 20463 kbps / 1080i / 29,970 fps / 16:9 / Advanced Profile 3
: English / LPCM Audio / 5.1 / 48 kHz / 4608 kbps / 16-bit
: English / DTS-HD Master Audio / 5.1 / 48 kHz / 2655 kbps / 16-bit (DTS Core: 5.1 / 48 kHz / 1509 kbps / 16-bit)
: English / Dolby Digital Audio / 2.0 / 48 kHz / 448 kbps
Disc Title:
Disc Size: 22532672443 bytes
Protection: AACS
BD-Java: No
BDInfo: 0.5.3

Notes:

BDINFO HOME:
Cinema Squid
http://www.cinemasquid.com/blu-ray/tools/bdinfo

INCLUDES FORUMS REPORT FOR:
AVS Forum Blu-ray Audio and Video Specifications Thread
http://www.avsforum.com/avs-vb/showthread.php?t=1155731

********************
PLAYLIST: 00001.MPLS
********************

<--- BEGIN FORUMS PASTE --->

:

Total Video
Title Codec Length Movie Size Disc Size Bitrate Bitrate Main Audio Track Secondary Audio Track
----- ------ ------- -------------- -------------- ------- ------- ------------------ ---------------------
00001.MPLS VC-1 1:31:11 20405901312 22532672443 29,84 20,46 LPCM 5.1 4608Kbps (48kHz/16-bit) DTS-HD Master 5.1 2655Kbps (48kHz/16-bit)[/spoiler]
[code]DISC INFO:

Disc Title:
Disc Size: 22532672443 bytes
Protection: AACS
BD-Java: No
BDInfo: 0.5.3

PLAYLIST REPORT:

Name: 00001.MPLS
Length: 1:31:11 (h:m:s)
Size: 20405901312 bytes
Total Bitrate: 29,84 Mbps

VIDEO:

Codec Bitrate Description
----- ------- -----------
VC-1 Video 20463 kbps 1080i / 29,970 fps / 16:9 / Advanced Profile 3

AUDIO:

Codec Language Bitrate Description
----- -------- ------- -----------
LPCM Audio English 4608 kbps 5.1 / 48 kHz / 4608 kbps / 16-bit
DTS-HD Master Audio English 2655 kbps 5.1 / 48 kHz / 2655 kbps / 16-bit (DTS Core: 5.1 / 48 kHz / 1509 kbps / 16-bit)
Dolby Digital Audio English 448 kbps 2.0 / 48 kHz / 448 kbps

FILES:

Name Time In Length Size Total Bitrate
---- ------- ------ ---- -------------
00001.M2TS 0:00:00.000 1:31:11.165 20405901312 29838

CHAPTERS:

Number Time In Length Avg Video Rate Max 1-Sec Rate Max 1-Sec Time Max 5-Sec Rate Max 5-Sec Time Max 10Sec Rate Max 10Sec Time Avg Frame Size Max Frame Size Max Frame Time
------ ------- ------ -------------- -------------- -------------- -------------- -------------- -------------- -------------- -------------- -------------- --------------
1 0:00:00.000 0:06:43.770 21305 kbps 34929 kbps 00:01:52.912 31372 kbps 00:05:49.482 29083 kbps 00:05:45.011 89086 bytes 287832 bytes 00:02:28.481
2 0:06:43.770 0:04:47.787 19841 kbps 33639 kbps 00:09:36.776 30054 kbps 00:09:34.607 29891 kbps 00:09:34.540 82995 bytes 297573 bytes 00:09:28.968
3 0:11:31.557 0:09:13.052 21357 kbps 33990 kbps 00:15:20.386 30550 kbps 00:15:17.116 29940 kbps 00:15:12.111 89369 bytes 353154 bytes 00:15:25.925
4 0:20:44.610 0:07:38.791 20457 kbps 35457 kbps 00:25:42.941 31930 kbps 00:24:25.931 30009 kbps 00:24:24.496 85541 bytes 282425 bytes 00:27:15.800
5 0:28:23.401 0:06:06.199 20830 kbps 35240 kbps 00:31:14.105 31993 kbps 00:31:13.771 29945 kbps 00:31:10.235 87052 bytes 298389 bytes 00:31:54.412
6 0:34:29.600 0:06:44.570 20210 kbps 31624 kbps 00:38:37.548 29459 kbps 00:38:34.612 27747 kbps 00:38:33.711 84559 bytes 316037 bytes 00:38:46.490
7 0:41:14.171 0:08:17.163 19615 kbps 32091 kbps 00:46:34.191 28988 kbps 00:48:09.219 27343 kbps 00:46:21.411 81997 bytes 314960 bytes 00:46:20.177
8 0:49:31.335 0:08:02.048 21777 kbps 31657 kbps 00:53:24.834 29338 kbps 00:53:23.366 27627 kbps 00:56:01.991 91111 bytes 299517 bytes 00:55:49.179
9 0:57:33.383 0:05:26.259 19851 kbps 33814 kbps 00:59:46.516 31324 kbps 00:59:46.716 30083 kbps 00:59:42.645 83068 bytes 289855 bytes 00:59:51.087
10 1:02:59.642 0:11:39.031 19945 kbps 33789 kbps 01:12:46.528 32108 kbps 01:12:45.828 29227 kbps 01:12:42.691 83365 bytes 299867 bytes 01:09:27.496
11 1:14:38.674 0:04:38.611 20353 kbps 34083 kbps 01:17:15.697 30199 kbps 01:17:12.761 26722 kbps 01:17:07.756 85083 bytes 283844 bytes 01:17:16.298
12 1:19:17.285 0:06:15.375 19810 kbps 33059 kbps 01:22:42.057 29404 kbps 01:23:15.223 27316 kbps 01:23:14.589 82831 bytes 302222 bytes 01:22:59.975
13 1:25:32.660 0:05:38.504 20290 kbps 30170 kbps 01:29:01.402 28105 kbps 01:28:57.632 27691 kbps 01:28:57.331 84844 bytes 298097 bytes 01:29:10.712

STREAM DIAGNOSTICS:

File PID Type Codec Language Seconds Bitrate Bytes Packets
---- --- ---- ----- -------- -------------- -------------- ------------- -----
00001.M2TS 4113 (0x1011) 0xEA VC-1 5471,099 20463 13994595294 76156546
00001.M2TS 4352 (0x1100) 0x86 DTS-HD MA eng (English) 5471,099 2655 1815963116 10723395
00001.M2TS 4353 (0x1101) 0x80 LPCM eng (English) 5471,099 4614 3155770856 17507744
00001.M2TS 4354 (0x1102) 0x81 AC3 eng (English) 5471,099 448 306385408 1709740[/code]
<---- END FORUMS PASTE ---->

QUICK SUMMARY:

Disc Title:
Disc Size: 22532672443 bytes
Protection: AACS
BD-Java: No
Playlist: 00001.MPLS
Size: 20405901312 bytes
Length: 1:31:11
Total Bitrate: 29,84 Mbps
Video: VC-1 Video / 20463 kbps / 1080i / 29,970 fps / 16:9 / Advanced Profile 3
Audio: English / LPCM Audio / 5.1 / 48 kHz / 4608 kbps / 16-bit
Audio: English / DTS-HD Master Audio / 5.1 / 48 kHz / 2655 kbps / 16-bit (DTS Core: 5.1 / 48 kHz / 1509 kbps / 16-bit)
Audio: English / Dolby Digital Audio / 2.0 / 48 kHz / 448 kbps

********************
PLAYLIST: 00002.MPLS
********************

<--- BEGIN FORUMS PASTE --->
[code]Total Video
Title Codec Length Movie Size Disc Size Bitrate Bitrate Main Audio Track Secondary Audio Track
----- ------ ------- -------------- -------------- ------- ------- ------------------ ---------------------
00002.MPLS VC-1 0:05:11 1152829440 22532672443 29,65 20,12 LPCM 5.1 4608Kbps (48kHz/16-bit) DTS-HD Master 5.1 2817Kbps (48kHz/16-bit)[/code]
[code]DISC INFO:

Disc Title:
Disc Size: 22532672443 bytes
Protection: AACS
BD-Java: No
BDInfo: 0.5.3

PLAYLIST REPORT:

Name: 00002.MPLS
Length: 0:05:11 (h:m:s)
Size: 1152829440 bytes
Total Bitrate: 29,65 Mbps

VIDEO:

Codec Bitrate Description
----- ------- -----------
VC-1 Video 20119 kbps 1080i / 29,970 fps / 16:9 / Advanced Profile 3

AUDIO:

Codec Language Bitrate Description
----- -------- ------- -----------
LPCM Audio German 4608 kbps 5.1 / 48 kHz / 4608 kbps / 16-bit
DTS-HD Master Audio German 2817 kbps 5.1 / 48 kHz / 2817 kbps / 16-bit (DTS Core: 5.1 / 48 kHz / 1509 kbps / 16-bit)
Dolby Digital Audio German 448 kbps 2.0 / 48 kHz / 448 kbps

FILES:

Name Time In Length Size Total Bitrate
---- ------- ------ ---- -------------
00003.M2TS 0:00:00.000 0:05:11.077 1152829440 29647

CHAPTERS:

Number Time In Length Avg Video Rate Max 1-Sec Rate Max 1-Sec Time Max 5-Sec Rate Max 5-Sec Time Max 10Sec Rate Max 10Sec Time Avg Frame Size Max Frame Size Max Frame Time
------ ------- ------ -------------- -------------- -------------- -------------- -------------- -------------- -------------- -------------- -------------- --------------
1 0:00:00.000 0:05:11.077 20119 kbps 33719 kbps 00:00:33.933 30754 kbps 00:00:30.964 28851 kbps 00:00:25.959 84110 bytes 320526 bytes 00:03:24.904

STREAM DIAGNOSTICS:

File PID Type Codec Language Seconds Bitrate Bytes Packets
---- --- ---- ----- -------- -------------- -------------- ------------- -----
00003.M2TS 4113 (0x1011) 0xEA VC-1 311,011 20123 782311388 4257326
00003.M2TS 4352 (0x1100) 0x86 DTS-HD MA deu (German) 311,011 2818 109535292 643852
00003.M2TS 4353 (0x1101) 0x80 LPCM deu (German) 311,011 4615 179430944 995456
00003.M2TS 4354 (0x1102) 0x81 AC3 deu (German) 311,011 448 17421824 97220[/code]
<---- END FORUMS PASTE ---->

QUICK SUMMARY:

Disc Title:
Disc Size: 22532672443 bytes
Protection: AACS
BD-Java: No
Playlist: 00002.MPLS
Size: 1152829440 bytes
Length: 0:05:11
Total Bitrate: 29,65 Mbps
Video: VC-1 Video / 20119 kbps / 1080i / 29,970 fps / 16:9 / Advanced Profile 3
Audio: German / LPCM Audio / 5.1 / 48 kHz / 4608 kbps / 16-bit
Audio: German / DTS-HD Master Audio / 5.1 / 48 kHz / 2817 kbps / 16-bit (DTS Core: 5.1 / 48 kHz / 1509 kbps / 16-bit)
Audio: German / Dolby Digital Audio / 2.0 / 48 kHz / 448 kbps

********************
PLAYLIST: 00003.MPLS
********************

<--- BEGIN FORUMS PASTE --->
[code]Total Video
Title Codec Length Movie Size Disc Size Bitrate Bitrate Main Audio Track Secondary Audio Track
----- ------ ------- -------------- -------------- ------- ------- ------------------ ---------------------
00003.MPLS VC-1 0:03:45 838643712 22532672443 29,71 20,21 LPCM 5.1 4608Kbps (48kHz/16-bit) DTS-HD Master 5.1 2783Kbps (48kHz/16-bit)[/code]
[code]DISC INFO:

Disc Title:
Disc Size: 22532672443 bytes
Protection: AACS
BD-Java: No
BDInfo: 0.5.3

PLAYLIST REPORT:

Name: 00003.MPLS
Length: 0:03:45 (h:m:s)
Size: 838643712 bytes
Total Bitrate: 29,71 Mbps

VIDEO:

Codec Bitrate Description
----- ------- -----------
VC-1 Video 20212 kbps 1080i / 29,970 fps / 16:9 / Advanced Profile 3

AUDIO:

Codec Language Bitrate Description
----- -------- ------- -----------
LPCM Audio German 4608 kbps 5.1 / 48 kHz / 4608 kbps / 16-bit
DTS-HD Master Audio German 2783 kbps 5.1 / 48 kHz / 2783 kbps / 16-bit (DTS Core: 5.1 / 48 kHz / 1509 kbps / 16-bit)
Dolby Digital Audio German 448 kbps 2.0 / 48 kHz / 448 kbps

FILES:

Name Time In Length Size Total Bitrate
---- ------- ------ ---- -------------
00004.M2TS 0:00:00.000 0:03:45.825 838643712 29709

CHAPTERS:

Number Time In Length Avg Video Rate Max 1-Sec Rate Max 1-Sec Time Max 5-Sec Rate Max 5-Sec Time Max 10Sec Rate Max 10Sec Time Avg Frame Size Max Frame Size Max Frame Time
------ ------- ------ -------------- -------------- -------------- -------------- -------------- -------------- -------------- -------------- -------------- --------------
1 0:00:00.000 0:03:45.825 20212 kbps 33153 kbps 00:01:59.252 30292 kbps 00:01:57.650 28282 kbps 00:01:57.650 84578 bytes 309866 bytes 00:02:00.954

STREAM DIAGNOSTICS:

File PID Type Codec Language Seconds Bitrate Bytes Packets
---- --- ---- ----- -------- -------------- -------------- ------------- -----
00004.M2TS 4113 (0x1011) 0xEA VC-1 225,726 20221 570560894 3104961
00004.M2TS 4352 (0x1100) 0x86 DTS-HD MA deu (German) 225,726 2784 78550036 462129
00004.M2TS 4353 (0x1101) 0x80 LPCM deu (German) 225,726 4617 130258744 722656
00004.M2TS 4354 (0x1102) 0x81 AC3 deu (German) 225,726 448 12647936 70580[/code]
<---- END FORUMS PASTE ---->

QUICK SUMMARY:

Disc Title:
Disc Size: 22532672443 bytes
Protection: AACS
BD-Java: No
Playlist: 00003.MPLS
Size: 838643712 bytes
Length: 0:03:45
Total Bitrate: 29,71 Mbps
Video: VC-1 Video / 20212 kbps / 1080i / 29,970 fps / 16:9 / Advanced Profile 3
Audio: German / LPCM Audio / 5.1 / 48 kHz / 4608 kbps / 16-bit
Audio: German / DTS-HD Master Audio / 5.1 / 48 kHz / 2783 kbps / 16-bit (DTS Core: 5.1 / 48 kHz / 1509 kbps / 16-bit)
Audio: German / Dolby Digital Audio / 2.0 / 48 kHz / 448 kbps

********************
PLAYLIST: 00000.MPLS
********************

<--- BEGIN FORUMS PASTE --->
[code]Total Video
Title Codec Length Movie Size Disc Size Bitrate Bitrate Main Audio Track Secondary Audio Track
----- ------ ------- -------------- -------------- ------- ------- ------------------ ---------------------
00000.MPLS VC-1 0:00:34 128311296 22532672443 29,33 25,64 DTS-HD Master 5.1 2171Kbps (48kHz/16-bit)[/code]
[code]DISC INFO:

Disc Title:
Disc Size: 22532672443 bytes
Protection: AACS
BD-Java: No
BDInfo: 0.5.3

PLAYLIST REPORT:

Name: 00000.MPLS
Length: 0:00:34 (h:m:s)
Size: 128311296 bytes
Total Bitrate: 29,33 Mbps

VIDEO:

Codec Bitrate Description
----- ------- -----------
VC-1 Video 25637 kbps 1080p / 23,976 fps / 16:9 / Advanced Profile 3

AUDIO:

Codec Language Bitrate Description
----- -------- ------- -----------
DTS-HD Master Audio German 2171 kbps 5.1 / 48 kHz / 2171 kbps / 16-bit (DTS Core: 5.1 / 48 kHz / 1509 kbps / 16-bit)

FILES:

Name Time In Length Size Total Bitrate
---- ------- ------ ---- -------------
00000.M2TS 0:00:00.000 0:00:34.993 128311296 29334

CHAPTERS:

Number Time In Length Avg Video Rate Max 1-Sec Rate Max 1-Sec Time Max 5-Sec Rate Max 5-Sec Time Max 10Sec Rate Max 10Sec Time Avg Frame Size Max Frame Size Max Frame Time
------ ------- ------ -------------- -------------- -------------- -------------- -------------- -------------- -------------- -------------- -------------- --------------
1 0:00:00.000 0:00:34.993 25637 kbps 55370 kbps 00:00:27.235 41692 kbps 00:00:26.985 38520 kbps 00:00:24.232 135435 bytes 621354 bytes 00:00:15.014

STREAM DIAGNOSTICS:

File PID Type Codec Language Seconds Bitrate Bytes Packets
---- --- ---- ----- -------- -------------- -------------- ------------- -----
00000.M2TS 4113 (0x1011) 0xEA VC-1 34,868 25729 112139935 609968
00000.M2TS 4352 (0x1100) 0x86 DTS-HD MA deu (German) 34,868 2179 9498308 57117[/code]
<---- END FORUMS PASTE ---->

QUICK SUMMARY:

Disc Title:
Disc Size: 22532672443 bytes
Protection: AACS
BD-Java: No
Playlist: 00000.MPLS
Size: 128311296 bytes
Length: 0:00:34
Total Bitrate: 29,33 Mbps
Video: VC-1 Video / 25637 kbps / 1080p / 23,976 fps / 16:9 / Advanced Profile 3
Audio: German / DTS-HD Master Audio / 5.1 / 48 kHz / 2171 kbps / 16-bit (DTS Core: 5.1 / 48 kHz / 1509 kbps / 16-bit)
.

 ·  , , FAQ-
:  [ 28--2011 21:57 ]

  

.torrent

.torrent 109 KB


: 21.04 GB
(hash) : d28be261f9993567495d730d7644943804173a88
··
...

Larry Carlton & Robben Ford - Autour du Blues . !

!