Carlos Santana Presents Blues at Montreux torrent

, , - AdBlock. #!


40.91 GB   |    :  6 3    |    .torrent :  111    |   
1  
   
...
 

Galfimbul

avatar Galfimbul


Carlos Santana Presents Blues at Montreux

: 2004
: Blues
: 01:36:49, 01:11:01, 01:10:38

Tracklist

Bobby Parker
01. Straight Up No Chaser
02. Break It Up
03. Breaking Up Somebody's Home
04. Nothing But The Blues
05. So Glad I Found You
06. I Ain't Superstitious
07. It's Unfair
08. Going Down Slow
09. Chill Out (with Carlos Santana)
10. Mellow Down Easy (with Carlos Santana)
11. Wathc Your Step (with Carlos Santana)

Clarence 'Gatemouth' Brown
01. Bits and Pieces
02. Strange Things Happen
03. I'm Beginning To See The Light
04. Sunrise Cajun Style
05. Honey Boy
06. Further On Up The Road
07. I've Got My Mojo Working (with Carlos Santana & Buddy Guy)
08. Drifter (with Carlos Santana)
09. Grape Jelly (with Carlos Santana)
10. Okie Dokie Stomp (with Carlos Santana & Nile Rodgers)

Buddy Guy
01. Good Morning Little Schoolgirl
02. Louise McGhee
03. Done Got Old
04. Hoochie Coochie Man
05. Fever
06. Drowning On Dry Land
07. Stormy Monday (with Carlos Santana)
08. Jam Session I (with Carlos Santana & Bobby Parker)
09. So Many Roads So Many Trains (with Carlos Santana & Bobby Parker)
10. Jam Session II (with Carlos Santana, Nile Rodgers & Bobby Parker)

: Blu-ray
: BDMV
: MPEG-4 AVC
: DTS, AC3
: 1920x1080i, MPEG-4 AVC, 29.97 fps, 17 Mbps
:
DTS-HD MA 5.1, 48 kHz, 16 bit, 2.6 - 3 Mbps (DTS Core: 5.1 / 48 kHz / 1509 kbps / 16-bit)
LPCM 2.0, 48 kHz, 24 bit, 2.3 Mbps
AC3 5.1, 48 kHz, 448 kbps
Disc Title:
Disc Size: 43932349165 bytes
Protection: AACS
BD-Java: No
BDInfo: 0.5.3

Notes:

BDINFO HOME:
Cinema Squid
http://www.cinemasquid.com/blu-ray/tools/bdinfo

INCLUDES FORUMS REPORT FOR:
AVS Forum Blu-ray Audio and Video Specifications Thread
http://www.avsforum.com/avs-vb/showthread.php?t=1155731

********************
PLAYLIST: 00001.MPLS
********************


<--- BEGIN FORUMS PASTE --->

:

Total Video
Title Codec Length Movie Size Disc Size Bitrate Bitrate Main Audio Track Secondary Audio Track
----- ------ ------- -------------- -------------- ------- ------- ------------------ ---------------------
00001.MPLS AVC 1:36:49 17272381440 43932349165 23,78 17,00 DTS-HD Master 5.1 2651Kbps (48kHz/16-bit) DD AC3 5.1 448Kbps[/spoiler]
[code]DISC INFO:

Disc Title:
Disc Size: 43932349165 bytes
Protection: AACS
BD-Java: No
BDInfo: 0.5.3

PLAYLIST REPORT:

Name: 00001.MPLS
Length: 1:36:49 (h:m:s)
Size: 17272381440 bytes
Total Bitrate: 23,78 Mbps

VIDEO:

Codec Bitrate Description
----- ------- -----------
MPEG-4 AVC Video 17000 kbps 1080i / 29,970 fps / 16:9 / High Profile 4.1

AUDIO:

Codec Language Bitrate Description
----- -------- ------- -----------
DTS-HD Master Audio English 2651 kbps 5.1 / 48 kHz / 2651 kbps / 16-bit (DTS Core: 5.1 / 48 kHz / 1509 kbps / 16-bit)
Dolby Digital Audio English 448 kbps 5.1 / 48 kHz / 448 kbps / DN -4dB
LPCM Audio English 2304 kbps 2.0 / 48 kHz / 2304 kbps / 24-bit

FILES:

Name Time In Length Size Total Bitrate
---- ------- ------ ---- -------------
00001.M2TS 0:00:00.000 1:36:49.837 17272381440 23784

CHAPTERS:

Number Time In Length Avg Video Rate Max 1-Sec Rate Max 1-Sec Time Max 5-Sec Rate Max 5-Sec Time Max 10Sec Rate Max 10Sec Time Avg Frame Size Max Frame Size Max Frame Time
------ ------- ------ -------------- -------------- -------------- -------------- -------------- -------------- -------------- -------------- -------------- --------------
1 0:00:00.000 0:04:57.530 13908 kbps 29987 kbps 00:02:53.806 23864 kbps 00:02:51.471 22780 kbps 00:02:46.733 58002 bytes 274842 bytes 00:02:05.925
2 0:04:57.530 0:03:17.030 16087 kbps 28381 kbps 00:06:21.380 23059 kbps 00:07:13.099 21014 kbps 00:07:08.694 67098 bytes 277159 bytes 00:08:01.080
3 0:08:14.560 0:04:18.691 13548 kbps 29989 kbps 00:09:31.237 28312 kbps 00:08:55.201 25117 kbps 00:08:52.598 56505 bytes 293824 bytes 00:08:58.971
4 0:12:33.252 0:22:55.941 14142 kbps 29999 kbps 00:16:53.345 26139 kbps 00:16:51.677 23092 kbps 00:31:06.698 58985 bytes 295193 bytes 00:16:54.713
5 0:35:29.193 0:08:41.520 15449 kbps 29079 kbps 00:42:31.916 25478 kbps 00:42:31.382 23618 kbps 00:42:29.013 64436 bytes 290902 bytes 00:41:44.435
6 0:44:10.714 0:17:37.322 17388 kbps 28467 kbps 00:56:16.639 26596 kbps 00:49:31.702 24377 kbps 00:56:23.880 72522 bytes 294754 bytes 00:56:25.882
7 1:01:48.037 0:08:15.261 18798 kbps 29996 kbps 01:07:10.526 28188 kbps 01:04:53.890 26841 kbps 01:04:24.594 78405 bytes 296703 bytes 01:05:22.385
8 1:10:03.299 0:11:48.808 19496 kbps 29999 kbps 01:13:12.354 28843 kbps 01:16:07.062 28232 kbps 01:16:05.494 81314 bytes 297796 bytes 01:13:08.317
9 1:21:52.107 0:04:28.635 20196 kbps 29907 kbps 01:24:54.489 26205 kbps 01:25:40.401 25731 kbps 01:24:52.320 84233 bytes 297329 bytes 01:24:04.939
10 1:26:20.742 0:10:28.094 21491 kbps 29999 kbps 01:30:37.165 28920 kbps 01:34:51.218 28179 kbps 01:34:35.403 89636 bytes 298916 bytes 01:34:27.561
11 1:36:48.836 0:00:01.001 96 kbps 0 kbps 00:00:00.000 0 kbps 00:00:00.000 0 kbps 00:00:00.000 416 bytes 1468 bytes 01:36:49.303

STREAM DIAGNOSTICS:

File PID Type Codec Language Seconds Bitrate Bytes Packets
---- --- ---- ----- -------- -------------- -------------- ------------- -----
00001.M2TS 4113 (0x1011) 0x1B AVC 5809,704 17000 12345710332 67284664
00001.M2TS 4352 (0x1100) 0x80 LPCM eng (English) 5809,704 2310 1677881792 9295744
00001.M2TS 4353 (0x1101) 0x81 AC3 eng (English) 5809,704 448 325351936 1815580
00001.M2TS 4354 (0x1102) 0x86 DTS-HD MA eng (English) 5809,704 2651 1925358444 11369675[/code]
<---- END FORUMS PASTE ---->

QUICK SUMMARY:

Disc Title:
Disc Size: 43932349165 bytes
Protection: AACS
BD-Java: No
Playlist: 00001.MPLS
Size: 17272381440 bytes
Length: 1:36:49
Total Bitrate: 23,78 Mbps
Video: MPEG-4 AVC Video / 17000 kbps / 1080i / 29,970 fps / 16:9 / High Profile 4.1
Audio: English / DTS-HD Master Audio / 5.1 / 48 kHz / 2651 kbps / 16-bit (DTS Core: 5.1 / 48 kHz / 1509 kbps / 16-bit)
Audio: English / Dolby Digital Audio / 5.1 / 48 kHz / 448 kbps / DN -4dB
Audio: English / LPCM Audio / 2.0 / 48 kHz / 2304 kbps / 24-bit

********************
PLAYLIST: 00002.MPLS
********************
[url=http://fastpic.ru/view/2/2010/0313/4523cdc62142d31b5bc1d09e180e82d3.png.html][img]http://i2.fastpic.ru/thumb/2010/0313/d3/4523cdc62142d31b5bc1d09e180e82d3.jpeg[/img][/url] [url=http://fastpic.ru/view/2/2010/0313/03c79b5ca740644468841a3c07de4e86.png.html][img]http://i2.fastpic.ru/thumb/2010/0313/86/03c79b5ca740644468841a3c07de4e86.jpeg[/img][/url]

<--- BEGIN FORUMS PASTE --->
[code]Total Video
Title Codec Length Movie Size Disc Size Bitrate Bitrate Main Audio Track Secondary Audio Track
----- ------ ------- -------------- -------------- ------- ------- ------------------ ---------------------
00002.MPLS AVC 1:11:01 12765806592 43932349165 23,97 17,00 DTS-HD Master 5.1 2826Kbps (48kHz/16-bit) DD AC3 5.1 448Kbps[/code]
[code]DISC INFO:

Disc Title:
Disc Size: 43932349165 bytes
Protection: AACS
BD-Java: No
BDInfo: 0.5.3

PLAYLIST REPORT:

Name: 00002.MPLS
Length: 1:11:01 (h:m:s)
Size: 12765806592 bytes
Total Bitrate: 23,97 Mbps

VIDEO:

Codec Bitrate Description
----- ------- -----------
MPEG-4 AVC Video 17000 kbps 1080i / 29,970 fps / 16:9 / High Profile 4.1

AUDIO:

Codec Language Bitrate Description
----- -------- ------- -----------
DTS-HD Master Audio English 2826 kbps 5.1 / 48 kHz / 2826 kbps / 16-bit (DTS Core: 5.1 / 48 kHz / 1509 kbps / 16-bit)
Dolby Digital Audio English 448 kbps 5.1 / 48 kHz / 448 kbps / DN -4dB
LPCM Audio English 2304 kbps 2.0 / 48 kHz / 2304 kbps / 24-bit

FILES:

Name Time In Length Size Total Bitrate
---- ------- ------ ---- -------------
00002.M2TS 0:00:00.000 1:11:01.290 12765806592 23966

CHAPTERS:

Number Time In Length Avg Video Rate Max 1-Sec Rate Max 1-Sec Time Max 5-Sec Rate Max 5-Sec Time Max 10Sec Rate Max 10Sec Time Avg Frame Size Max Frame Size Max Frame Time
------ ------- ------ -------------- -------------- -------------- -------------- -------------- -------------- -------------- -------------- -------------- --------------
1 0:00:00.000 0:06:34.994 15740 kbps 29985 kbps 00:02:22.642 22984 kbps 00:02:20.840 20272 kbps 00:01:49.809 65643 bytes 290892 bytes 00:02:47.200
2 0:06:34.994 0:07:12.331 16134 kbps 27796 kbps 00:10:02.335 25082 kbps 00:09:59.799 22626 kbps 00:09:55.328 67294 bytes 286756 bytes 00:13:01.947
3 0:13:47.326 0:03:32.845 17456 kbps 29998 kbps 00:15:56.889 28816 kbps 00:15:57.022 24759 kbps 00:15:53.552 72807 bytes 296040 bytes 00:16:02.761
4 0:17:20.172 0:05:31.731 17874 kbps 29999 kbps 00:20:17.983 29985 kbps 00:20:16.982 27503 kbps 00:20:14.746 74548 bytes 290887 bytes 00:22:36.355
5 0:22:51.903 0:04:31.304 16032 kbps 26942 kbps 00:24:34.973 22851 kbps 00:25:27.092 22004 kbps 00:25:27.926 66866 bytes 290371 bytes 00:26:45.203
6 0:27:23.208 0:04:12.118 15823 kbps 25925 kbps 00:29:39.911 22308 kbps 00:30:04.269 20784 kbps 00:30:02.700 65995 bytes 286676 bytes 00:30:12.610
7 0:31:35.326 0:07:36.155 18597 kbps 29997 kbps 00:34:14.452 29289 kbps 00:33:55.333 27601 kbps 00:33:54.799 77565 bytes 296588 bytes 00:37:31.682
8 0:39:11.482 0:15:38.070 17241 kbps 29998 kbps 00:43:23.033 27757 kbps 00:43:02.046 25351 kbps 00:43:41.885 71911 bytes 298662 bytes 00:54:06.476
9 0:54:49.552 0:07:43.095 18333 kbps 29997 kbps 00:59:57.594 29425 kbps 00:58:28.238 27415 kbps 00:57:51.234 76462 bytes 294035 bytes 00:58:09.452
10 1:02:32.648 0:08:27.640 15992 kbps 29052 kbps 01:07:33.883 26386 kbps 01:07:37.353 24899 kbps 01:07:32.081 66699 bytes 297322 bytes 01:08:18.294
11 1:11:00.289 0:00:01.001 105 kbps 0 kbps 00:00:00.000 0 kbps 00:00:00.000 0 kbps 00:00:00.000 453 bytes 1470 bytes 01:11:01.256

STREAM DIAGNOSTICS:

File PID Type Codec Language Seconds Bitrate Bytes Packets
---- --- ---- ----- -------- -------------- -------------- ------------- -----
00002.M2TS 4113 (0x1011) 0x1B AVC 4261,224 17000 9055101196 49350912
00002.M2TS 4352 (0x1100) 0x80 LPCM eng (English) 4261,224 2310 1230661996 6818072
00002.M2TS 4353 (0x1101) 0x81 AC3 eng (English) 4261,224 448 238633472 1331660
00002.M2TS 4354 (0x1102) 0x86 DTS-HD MA eng (English) 4261,224 2826 1505432404 8845138[/code]
<---- END FORUMS PASTE ---->

QUICK SUMMARY:

Disc Title:
Disc Size: 43932349165 bytes
Protection: AACS
BD-Java: No
Playlist: 00002.MPLS
Size: 12765806592 bytes
Length: 1:11:01
Total Bitrate: 23,97 Mbps
Video: MPEG-4 AVC Video / 17000 kbps / 1080i / 29,970 fps / 16:9 / High Profile 4.1
Audio: English / DTS-HD Master Audio / 5.1 / 48 kHz / 2826 kbps / 16-bit (DTS Core: 5.1 / 48 kHz / 1509 kbps / 16-bit)
Audio: English / Dolby Digital Audio / 5.1 / 48 kHz / 448 kbps / DN -4dB
Audio: English / LPCM Audio / 2.0 / 48 kHz / 2304 kbps / 24-bit

********************
PLAYLIST: 00000.MPLS
********************
[url=http://fastpic.ru/view/2/2010/0313/c845051cedf6652ab13b96815c402dda.png.html][img]http://i2.fastpic.ru/thumb/2010/0313/da/c845051cedf6652ab13b96815c402dda.jpeg[/img][/url] [url=http://fastpic.ru/view/2/2010/0313/596e0b1251b25ff3bf9f090a5ddd97a5.png.html][img]http://i2.fastpic.ru/thumb/2010/0313/a5/596e0b1251b25ff3bf9f090a5ddd97a5.jpeg[/img][/url]

<--- BEGIN FORUMS PASTE --->
[code]Total Video
Title Codec Length Movie Size Disc Size Bitrate Bitrate Main Audio Track Secondary Audio Track
----- ------ ------- -------------- -------------- ------- ------- ------------------ ---------------------
00000.MPLS AVC 1:10:38 12831025152 43932349165 24,22 17,00 DTS-HD Master 5.1 3069Kbps (48kHz/16-bit) DD AC3 5.1 448Kbps[/code]
[code]DISC INFO:

Disc Title:
Disc Size: 43932349165 bytes
Protection: AACS
BD-Java: No
BDInfo: 0.5.3

PLAYLIST REPORT:

Name: 00000.MPLS
Length: 1:10:38 (h:m:s)
Size: 12831025152 bytes
Total Bitrate: 24,22 Mbps

VIDEO:

Codec Bitrate Description
----- ------- -----------
MPEG-4 AVC Video 17000 kbps 1080i / 29,970 fps / 16:9 / High Profile 4.1

AUDIO:

Codec Language Bitrate Description
----- -------- ------- -----------
DTS-HD Master Audio English 3069 kbps 5.1 / 48 kHz / 3069 kbps / 16-bit (DTS Core: 5.1 / 48 kHz / 1509 kbps / 16-bit)
Dolby Digital Audio English 448 kbps 5.1 / 48 kHz / 448 kbps / DN -4dB
LPCM Audio English 2304 kbps 2.0 / 48 kHz / 2304 kbps / 24-bit

FILES:

Name Time In Length Size Total Bitrate
---- ------- ------ ---- -------------
00000.M2TS 0:00:00.000 1:10:38.267 12831025152 24219

CHAPTERS:

Number Time In Length Avg Video Rate Max 1-Sec Rate Max 1-Sec Time Max 5-Sec Rate Max 5-Sec Time Max 10Sec Rate Max 10Sec Time Avg Frame Size Max Frame Size Max Frame Time
------ ------- ------ -------------- -------------- -------------- -------------- -------------- -------------- -------------- -------------- -------------- --------------
1 0:00:00.000 0:06:49.809 14798 kbps 29996 kbps 00:02:14.601 24598 kbps 00:02:11.698 22771 kbps 00:02:19.873 61715 bytes 291350 bytes 00:05:56.222
2 0:06:49.809 0:03:26.773 17914 kbps 28123 kbps 00:08:43.623 23669 kbps 00:08:51.130 22150 kbps 00:08:46.125 74716 bytes 292051 bytes 00:07:00.520
3 0:10:16.582 0:05:15.281 17935 kbps 29411 kbps 00:15:04.003 25325 kbps 00:12:57.610 22882 kbps 00:14:59.298 74802 bytes 298526 bytes 00:10:45.678
4 0:15:31.864 0:05:35.768 17062 kbps 30000 kbps 00:18:56.735 24274 kbps 00:19:08.614 22457 kbps 00:19:08.614 71162 bytes 298354 bytes 00:18:29.641
5 0:21:07.633 0:08:46.425 16602 kbps 28408 kbps 00:21:21.480 23619 kbps 00:21:21.013 20767 kbps 00:21:20.979 69244 bytes 285709 bytes 00:25:51.483
6 0:29:54.058 0:05:37.704 17453 kbps 29981 kbps 00:31:55.013 23887 kbps 00:31:54.679 21315 kbps 00:31:54.646 72795 bytes 290193 bytes 00:32:12.830
7 0:35:31.762 0:06:26.352 17764 kbps 29557 kbps 00:41:34.558 26308 kbps 00:41:20.511 23039 kbps 00:41:34.558 74092 bytes 293649 bytes 00:37:13.197
8 0:41:58.115 0:07:47.066 13885 kbps 28516 kbps 00:44:30.100 23649 kbps 00:44:28.732 20970 kbps 00:47:01.552 57914 bytes 290731 bytes 00:47:23.040
9 0:49:45.182 0:07:07.760 18456 kbps 29947 kbps 00:53:51.328 27715 kbps 00:53:13.590 26906 kbps 00:53:07.651 76975 bytes 296109 bytes 00:50:26.123
10 0:56:52.942 0:05:31.731 19258 kbps 29996 kbps 01:00:11.941 28837 kbps 01:00:37.233 27519 kbps 01:00:32.261 80321 bytes 295980 bytes 01:00:41.471
11 1:02:24.674 0:08:12.592 17524 kbps 29999 kbps 01:09:25.194 26452 kbps 01:06:02.058 24552 kbps 01:05:55.685 73091 bytes 293506 bytes 01:08:46.122
12 1:10:37.266 0:00:01.001 105 kbps 0 kbps 00:00:00.000 0 kbps 00:00:00.000 0 kbps 00:00:00.000 454 bytes 1467 bytes 01:10:37.366

STREAM DIAGNOSTICS:

File PID Type Codec Language Seconds Bitrate Bytes Packets
---- --- ---- ----- -------- -------------- -------------- ------------- -----
00000.M2TS 4113 (0x1011) 0x1B AVC 4238,167 17000 9006207068 49084411
00000.M2TS 4352 (0x1100) 0x80 LPCM eng (English) 4238,167 2310 1224012376 6781232
00000.M2TS 4353 (0x1101) 0x81 AC3 eng (English) 4238,167 448 237343232 1324460
00000.M2TS 4354 (0x1102) 0x86 DTS-HD MA eng (English) 4238,167 3069 1625724804 9496139[/code]
<---- END FORUMS PASTE ---->

QUICK SUMMARY:

Disc Title:
Disc Size: 43932349165 bytes
Protection: AACS
BD-Java: No
Playlist: 00000.MPLS
Size: 12831025152 bytes
Length: 1:10:38
Total Bitrate: 24,22 Mbps
Video: MPEG-4 AVC Video / 17000 kbps / 1080i / 29,970 fps / 16:9 / High Profile 4.1
Audio: English / DTS-HD Master Audio / 5.1 / 48 kHz / 3069 kbps / 16-bit (DTS Core: 5.1 / 48 kHz / 1509 kbps / 16-bit)
Audio: English / Dolby Digital Audio / 5.1 / 48 kHz / 448 kbps / DN -4dB
Audio: English / LPCM Audio / 2.0 / 48 kHz / 2304 kbps / 24-bit

********************
PLAYLIST: 00003.MPLS
********************

<--- BEGIN FORUMS PASTE --->
[code]Total Video
Title Codec Length Movie Size Disc Size Bitrate Bitrate Main Audio Track Secondary Audio Track
----- ------ ------- -------------- -------------- ------- ------- ------------------ ---------------------
00003.MPLS AVC 0:07:18 1004212224 43932349165 18,32 17,00 DD AC3 5.1 448Kbps[/code]
[code]DISC INFO:

Disc Title:
Disc Size: 43932349165 bytes
Protection: AACS
BD-Java: No
BDInfo: 0.5.3

PLAYLIST REPORT:

Name: 00003.MPLS
Length: 0:07:18 (h:m:s)
Size: 1004212224 bytes
Total Bitrate: 18,32 Mbps

VIDEO:

Codec Bitrate Description
----- ------- -----------
MPEG-4 AVC Video 17004 kbps 1080i / 29,970 fps / 16:9 / High Profile 4.1

AUDIO:

Codec Language Bitrate Description
----- -------- ------- -----------
Dolby Digital Audio English 448 kbps 5.1 / 48 kHz / 448 kbps / DN -4dB

FILES:

Name Time In Length Size Total Bitrate
---- ------- ------ ---- -------------
00003.M2TS 0:00:00.000 0:07:18.404 1004212224 18325

CHAPTERS:

Number Time In Length Avg Video Rate Max 1-Sec Rate Max 1-Sec Time Max 5-Sec Rate Max 5-Sec Time Max 10Sec Rate Max 10Sec Time Avg Frame Size Max Frame Size Max Frame Time
------ ------- ------ -------------- -------------- -------------- -------------- -------------- -------------- -------------- -------------- -------------- --------------
1 0:00:00.000 0:07:18.404 17004 kbps 29999 kbps 00:02:33.253 29021 kbps 00:02:20.006 25556 kbps 00:02:20.206 70921 bytes 288145 bytes 00:02:21.241

STREAM DIAGNOSTICS:

File PID Type Codec Language Seconds Bitrate Bytes Packets
---- --- ---- ----- -------- -------------- -------------- ------------- -----
00003.M2TS 4113 (0x1011) 0x1B AVC 438,305 17008 931831231 5078535
00003.M2TS 4352 (0x1100) 0x81 AC3 eng (English) 438,305 448 24552192 137010[/code]
<---- END FORUMS PASTE ---->

QUICK SUMMARY:

Disc Title:
Disc Size: 43932349165 bytes
Protection: AACS
BD-Java: No
Playlist: 00003.MPLS
Size: 1004212224 bytes
Length: 0:07:18
Total Bitrate: 18,32 Mbps
Video: MPEG-4 AVC Video / 17004 kbps / 1080i / 29,970 fps / 16:9 / High Profile 4.1
Audio: English / Dolby Digital Audio / 5.1 / 48 kHz / 448 kbps / DN -4dB

********************
PLAYLIST: 00004.MPLS
********************

<--- BEGIN FORUMS PASTE --->
[code]Total Video
Title Codec Length Movie Size Disc Size Bitrate Bitrate Main Audio Track Secondary Audio Track
----- ------ ------- -------------- -------------- ------- ------- ------------------ ---------------------
00004.MPLS AVC 0:00:32 30418944 43932349165 7,37 6,79 DD AC3 5.1 448Kbps[/code]
[code]DISC INFO:

Disc Title:
Disc Size: 43932349165 bytes
Protection: AACS
BD-Java: No
BDInfo: 0.5.3

PLAYLIST REPORT:

Name: 00004.MPLS
Length: 0:00:32 (h:m:s)
Size: 30418944 bytes
Total Bitrate: 7,37 Mbps

VIDEO:

Codec Bitrate Description
----- ------- -----------
MPEG-4 AVC Video 6785 kbps 1080i / 29,970 fps / 16:9 / High Profile 4.1

AUDIO:

Codec Language Bitrate Description
----- -------- ------- -----------
Dolby Digital Audio English 448 kbps 5.1 / 48 kHz / 448 kbps / DN -4dB

FILES:

Name Time In Length Size Total Bitrate
---- ------- ------ ---- -------------
00004.M2TS 0:00:00.000 0:00:10.510 4841472 3685
00006.M2TS 0:00:10.510 0:00:10.510 4601856 3503
00005.M2TS 0:00:21.020 0:00:11.978 20975616 14009

CHAPTERS:

Number Time In Length Avg Video Rate Max 1-Sec Rate Max 1-Sec Time Max 5-Sec Rate Max 5-Sec Time Max 10Sec Rate Max 10Sec Time Avg Frame Size Max Frame Size Max Frame Time
------ ------- ------ -------------- -------------- -------------- -------------- -------------- -------------- -------------- -------------- -------------- --------------
1 0:00:00.000 0:00:32.999 6785 kbps 23517 kbps 00:00:27.460 20065 kbps 00:00:23.456 15361 kbps 00:00:22.956 28300 bytes 200073 bytes 00:00:18.918

STREAM DIAGNOSTICS:

File PID Type Codec Language Seconds Bitrate Bytes Packets
---- --- ---- ----- -------- -------------- -------------- ------------- -----
00004.M2TS 4113 (0x1011) 0x1B AVC 10,410 3448 4486469 24858
00006.M2TS 4113 (0x1011) 0x1B AVC 10,410 3270 4254964 23596
00005.M2TS 4113 (0x1011) 0x1B AVC 11,912 12926 19246846 105046
00005.M2TS 4352 (0x1100) 0x81 AC3 eng (English) 11,912 451 672000 3750[/code]
<---- END FORUMS PASTE ---->

QUICK SUMMARY:

Disc Title:
Disc Size: 43932349165 bytes
Protection: AACS
BD-Java: No
Playlist: 00004.MPLS
Size: 30418944 bytes
Length: 0:00:32
Total Bitrate: 7,37 Mbps
Video: MPEG-4 AVC Video / 6785 kbps / 1080i / 29,970 fps / 16:9 / High Profile 4.1
Audio: English / Dolby Digital Audio / 5.1 / 48 kHz / 448 kbps / DN -4dB


 ·  , , FAQ-
:  [ 28--2011 21:55 ]

  

.torrent

.torrent 207 KB


: 40.91 GB
(hash) : b4308c4fcd5ab620ad921b4df337132d9c5e2a5d
··
...

, Carlos Santana Presents Blues at Montreux

S L
Jazz, Blues (video) ·· Carlos Santana Presents Blues at Montreux (2004),1080p, FLAC [2009, Blues, BDRip] Galfimbul 2646690842924.65 GB 0 0 1311882251

22:44

28--11

Carlos Santana Presents Blues at Montreux . !

!