Скачать порно через торрент Straight Boys Fucking 4 Прямые мальчики ебля 4 UnionPeer.org бесплатно онлайн HD качество

Скачать новое порно 2015, 2014 новинки через торрент UnionPeer.org

Порно торрент бесплатно ЮнионПир.орг

Если у вас наблюдаются проблемы со скриншотами, переходом по ссылками, скачиванием торрентов - проблемы в блокировщике рекламы AdBlock. #хорошегоДня!


Статистика раздачи
Размер:  1.14 GB   |    Зарегистрирован:  5 месяцев 12 дней   |    .torrent скачан:  51 раз   |   
Раздают:  1  
   
Загрузка...
 
Автор Сообщение

Galfimbul

avatar Galfimbul


Straight Boys Fucking 4 / Прямые мальчики ебля 4

Год производства: 2009 г.
Страна: Czech Republic
Жанр: all sex
Продолжительность: 01:15:39

Режиссер: Czechboys Video
Студия: Czechboys Video

В ролях: Daniel Berk
Erik Rin
Filip Top
Jan Krasny
Janu (Pavel Matous)
Jarda Tan
Lukase (Taylor)
Martin Babe

Описание: Four XXX action scenes and two solos featuring the hottest str8 boys from CzechBoys.com!

General

Format : AVI
Format/Info : Audio Video Interleave
File size : 1.14 GiB
Duration : 1h 15mn
Overall bit rate : 2 163 Kbps

Video
ID : 0
Format : MPEG-4 Visual
Format profile : Advanced Simple@L5
Format settings, BVOP : 2
Format settings, QPel : No
Format settings, GMC : No warppoints
Format settings, Matrix : Default (H.263)
Muxing mode : Packed bitstream
Codec ID : XVID
Codec ID/Hint : XviD
Duration : 1h 15mn
Bit rate : 2 023 Kbps
Width : 720 pixels
Height : 480 pixels
Display aspect ratio : 3:2
Frame rate : 30.000 fps
Standard : NTSC
Color space : YUV
Chroma subsampling : 4:2:0
Bit depth : 8 bits
Scan type : Progressive
Compression mode : Lossy
Bits/(Pixel*Frame) : 0.195
Stream size : 1.07 GiB (94%)
Writing library : XviD 1.1.0 (UTC 2005-11-22)

Audio
ID : 1
Format : MPEG Audio
Format version : Version 1
Format profile : Layer 3
Codec ID : 55
Codec ID/Hint : MP3
Duration : 1h 15mn
Bit rate mode : Constant
Bit rate : 128 Kbps
Channel(s) : 2 channels
Sampling rate : 48.0 KHz
Compression mode : Lossy
Stream size : 69.3 MiB (6%)
Alignment : Split accross interleaves
Interleave, duration : 33 ms (1.00 video frame)
Writing library : LAMELAME_MAJOR_VERSI

Качество видео: DVDRip
Формат видео: AVI
Видео: Overall bit rate : 2 163 Kbps
Аудио: Bit rate : 128 Kbps


Трекер:  [ 05-Мар-2017 12:30 ]

  

Скачать .torrent

Размер .torrent файла 46 KB


Размер: 1.14 GB
Хэш (hash) релиза: e4a93eb6f555f42a611c13def1eeaab58a1edb11

Еще никто не оставлял запись к записи скачать торрент Straight Boys Fucking 4 Прямые мальчики ебля 4 . Будь первым!

!Обратная связь