John Scofield: New Morning - The Paris Concert torrent

, , - AdBlock. #!


22.7 GB   |    :  6    |    .torrent :  68    |   
1  
   
...
 

Galfimbul

avatar Galfimbul


John Scofield: New Morning - The Paris Concert (2010) Blu-ray 1080i AVC DTS-HD 5.1

: Jazz
: 01:56:27
: 2010
: John Scofield is considered one of the most important and influential jazz guitarists and composers since he arrived on the scene in the mid seventies. A masterful improviser at the peak of his creative art, Scofield revisits today compositions & interpretations richly combining post-bop, funk edged jazz, and R&B influences. The New Morning is deeply honored to welcome this 2010 performance by John Scofield (backed by master drummer Bill Stewart, bassist Ben Street and pianist Michael Eckroth) to its series of DVDs dedicated to the great musicians of the Sons of Miles generation. A veteran alum, John toured & recorded with Miles for nearly four years in the eighties. - Daniel Farhi

:
1. Ten Taken
2. Woody 'n You
3. Slinky
4. My Foolish Heart
5. Steeplechase
6. Hive
7. Lost Found & Inbetween
8. Chirikawa
9. Relaxin' At Camarillo
10. I Want To Talk About You
11. Groove Elation
12. The Guiness Spot

: Blu-ray
: M2TS
: 1080i/MPEG-4 AVC, 29,970 fps, 16:9, bitrate: 17496 kbps
: DTS-HD MA 5.1 (48 kHz / 4938 kbps / 24-bit), LPCM 2.0 (48 kHz / 2304 kbps / 24-bit)
Disc Title: SCOFIELD

Disc Size: 24379648375 bytes

Protection: AACS

BD-Java: No

BDInfo: 0.5.6

Notes:

BDINFO HOME:

Cinema Squid

http://www.cinemasquid.com/blu-ray/tools/bdinfo

INCLUDES FORUMS REPORT FOR:

AVS Forum Blu-ray Audio and Video Specifications Thread

http://www.avsforum.com/avs-vb/showthread.php?t=1155731

********************

PLAYLIST: 00000.MPLS

********************

<--- BEGIN FORUMS PASTE --->

:

Total Video

Title Codec Length Movie Size Disc Size Bitrate Bitrate Main Audio Track Secondary Audio Track

----- ------ ------- -------------- -------------- ------- ------- ------------------ ---------------------

00000.MPLS AVC 1:56:27 22869835776 24379648375 26,19 17,50 DTS-HD Master 5.1 4938Kbps (48kHz/24-bit) LPCM 2.0 2304Kbps (48kHz/24-bit)

:

DISC INFO:

Disc Title: SCOFIELD

Disc Size: 24379648375 bytes

Protection: AACS

BD-Java: No

BDInfo: 0.5.6

PLAYLIST REPORT:

Name: 00000.MPLS

Length: 1:56:27 (h:m:s)

Size: 22869835776 bytes

Total Bitrate: 26,19 Mbps

VIDEO:

Codec Bitrate Description

----- ------- -----------

MPEG-4 AVC Video 17496 kbps 1080i / 29,970 fps / 16:9 / High Profile 4.1

AUDIO:

Codec Language Bitrate Description

----- -------- ------- -----------

DTS-HD Master Audio English 4938 kbps 5.1 / 48 kHz / 4938 kbps / 24-bit (DTS Core: 5.1 / 48 kHz / 1509 kbps / 24-bit)

LPCM Audio English 2304 kbps 2.0 / 48 kHz / 2304 kbps / 24-bit

FILES:

Name Time In Length Size Total Bitrate

---- ------- ------ ---- -------------

00001.M2TS 0:00:00.000 1:56:27.013 22869835776 26186

CHAPTERS:

Number Time In Length Avg Video Rate Max 1-Sec Rate Max 1-Sec Time Max 5-Sec Rate Max 5-Sec Time Max 10Sec Rate Max 10Sec Time Avg Frame Size Max Frame Size Max Frame Time

------ ------- ------ -------------- -------------- -------------- -------------- -------------- -------------- -------------- -------------- -------------- --------------

1 0:00:00.000 0:11:13.372 17652 kbps 22566 kbps 00:07:53.306 21209 kbps 00:03:22.202 20216 kbps 00:11:00.026 73621 bytes 248381 bytes 00:11:09.435

2 0:11:13.372 0:08:34.513 17987 kbps 25986 kbps 00:19:40.245 24864 kbps 00:19:37.209 23401 kbps 00:19:37.109 75022 bytes 255142 bytes 00:19:41.246

3 0:19:47.886 0:10:57.890 17249 kbps 23540 kbps 00:28:04.616 20694 kbps 00:28:01.079 20001 kbps 00:27:20.271 71941 bytes 238247 bytes 00:28:10.555

4 0:30:45.777 0:09:33.773 16687 kbps 22219 kbps 00:35:31.629 20741 kbps 00:35:31.729 19965 kbps 00:35:27.959 69598 bytes 230581 bytes 00:32:25.009

5 0:40:19.550 0:07:53.339 17179 kbps 22443 kbps 00:47:25.042 21584 kbps 00:47:35.152 20964 kbps 00:44:57.728 71649 bytes 221124 bytes 00:42:24.875

6 0:48:12.889 0:06:55.448 18525 kbps 25057 kbps 00:54:18.755 23737 kbps 00:49:10.814 22685 kbps 00:54:10.513 77265 bytes 228829 bytes 00:53:26.236

7 0:55:08.338 0:11:01.360 17148 kbps 22605 kbps 01:00:26.756 21310 kbps 01:00:22.719 20436 kbps 01:00:17.513 71523 bytes 231541 bytes 01:01:26.516

8 1:06:09.699 0:07:05.558 17150 kbps 23406 kbps 01:08:38.380 21157 kbps 01:12:18.434 19501 kbps 01:12:13.629 71529 bytes 214421 bytes 01:06:20.876

9 1:13:15.257 0:09:44.317 17685 kbps 22465 kbps 01:22:43.792 21388 kbps 01:22:41.589 20853 kbps 01:20:03.398 73762 bytes 238623 bytes 01:22:44.192

10 1:22:59.574 0:14:00.739 17209 kbps 24017 kbps 01:34:07.174 23187 kbps 01:34:05.006 20418 kbps 01:28:20.061 71777 bytes 216148 bytes 01:33:30.438

11 1:37:00.314 0:09:40.279 18285 kbps 24083 kbps 01:46:19.072 22702 kbps 01:46:15.068 22162 kbps 01:46:12.065 76264 bytes 228798 bytes 01:46:21.808

12 1:46:40.594 0:09:46.419 17572 kbps 23941 kbps 01:47:20.834 22875 kbps 01:56:12.432 21952 kbps 01:56:08.962 73294 bytes 225189 bytes 01:55:19.779

STREAM DIAGNOSTICS:

File PID Type Codec Language Seconds Bitrate Bytes Packets

---- --- ---- ----- -------- -------------- -------------- ------------- -----

00001.M2TS 4113 (0x1011) 0x1B AVC 6986,947 17497 15280989163 83170755

00001.M2TS 4352 (0x1100) 0x86 DTS-HD MA eng (English) 6986,947 4939 4313140968 24529171

00001.M2TS 4353 (0x1101) 0x80 LPCM eng (English) 6986,947 2311 2017936572 11179704
<---- END FORUMS PASTE ---->

QUICK SUMMARY:

Disc Title: SCOFIELD

Disc Size: 24379648375 bytes

Protection: AACS

BD-Java: No

Playlist: 00000.MPLS

Size: 22869835776 bytes

Length: 1:56:27

Total Bitrate: 26,19 Mbps

Video: MPEG-4 AVC Video / 17496 kbps / 1080i / 29,970 fps / 16:9 / High Profile 4.1

Audio: English / DTS-HD Master Audio / 5.1 / 48 kHz / 4938 kbps / 24-bit (DTS Core: 5.1 / 48 kHz / 1509 kbps / 24-bit)

Audio: English / LPCM Audio / 2.0 / 48 kHz / 2304 kbps / 24-bit

********************

PLAYLIST: 00001.MPLS

********************

<--- BEGIN FORUMS PASTE --->

:

Total Video

Title Codec Length Movie Size Disc Size Bitrate Bitrate Main Audio Track Secondary Audio Track

----- ------ ------- -------------- -------------- ------- ------- ------------------ ---------------------

00001.MPLS AVC 0:08:02 1372170240 24379648375 22,73 17,00 LPCM 2.0 2304Kbps (48kHz/24-bit) LPCM 2.0 2304Kbps (48kHz/24-bit)

:

DISC INFO:

Disc Title: SCOFIELD

Disc Size: 24379648375 bytes

Protection: AACS

BD-Java: No

BDInfo: 0.5.6

PLAYLIST REPORT:

Name: 00001.MPLS

Length: 0:08:02 (h:m:s)

Size: 1372170240 bytes

Total Bitrate: 22,73 Mbps

VIDEO:

Codec Bitrate Description

----- ------- -----------

MPEG-4 AVC Video 16999 kbps 1080i / 29,970 fps / 16:9 / High Profile 4.1

AUDIO:

Codec Language Bitrate Description

----- -------- ------- -----------

LPCM Audio English 2304 kbps 2.0 / 48 kHz / 2304 kbps / 24-bit

LPCM Audio English 2304 kbps 2.0 / 48 kHz / 2304 kbps / 24-bit

FILES:

Name Time In Length Size Total Bitrate

---- ------- ------ ---- -------------

00000.M2TS 0:00:00.000 0:08:02.915 1372170240 22731

CHAPTERS:

Number Time In Length Avg Video Rate Max 1-Sec Rate Max 1-Sec Time Max 5-Sec Rate Max 5-Sec Time Max 10Sec Rate Max 10Sec Time Avg Frame Size Max Frame Size Max Frame Time

------ ------- ------ -------------- -------------- -------------- -------------- -------------- -------------- -------------- -------------- -------------- --------------

1 0:00:00.000 0:08:02.915 16999 kbps 25466 kbps 00:02:21.040 24442 kbps 00:02:18.972 23040 kbps 00:02:00.019 70901 bytes 263211 bytes 00:02:09.762

STREAM DIAGNOSTICS:

File PID Type Codec Language Seconds Bitrate Bytes Packets

---- --- ---- ----- -------- -------------- -------------- ------------- -----

00000.M2TS 4113 (0x1011) 0x1B AVC 482,782 17004 1026148329 5585280

00000.M2TS 4352 (0x1100) 0x80 LPCM eng (English) 482,782 2311 139457188 772616

00000.M2TS 4353 (0x1101) 0x80 LPCM eng (English) 482,782 2311 139457188 772616
<---- END FORUMS PASTE ---->

QUICK SUMMARY:

Disc Title: SCOFIELD

Disc Size: 24379648375 bytes

Protection: AACS

BD-Java: No

Playlist: 00001.MPLS

Size: 1372170240 bytes

Length: 0:08:02

Total Bitrate: 22,73 Mbps

Video: MPEG-4 AVC Video / 16999 kbps / 1080i / 29,970 fps / 16:9 / High Profile 4.1

Audio: English / LPCM Audio / 2.0 / 48 kHz / 2304 kbps / 24-bit

Audio: English / LPCM Audio / 2.0 / 48 kHz / 2304 kbps / 24-bit

********************

PLAYLIST: 00003.MPLS

********************

<--- BEGIN FORUMS PASTE --->

:

Total Video

Title Codec Length Movie Size Disc Size Bitrate Bitrate Main Audio Track Secondary Audio Track

----- ------ ------- -------------- -------------- ------- ------- ------------------ ---------------------

00003.MPLS AVC 0:00:35 125626368 24379648375 28,69 25,02 DTS-HD Master 5.1 2168Kbps (48kHz/16-bit)

:

DISC INFO:

Disc Title: SCOFIELD

Disc Size: 24379648375 bytes

Protection: AACS

BD-Java: No

BDInfo: 0.5.6

PLAYLIST REPORT:

Name: 00003.MPLS

Length: 0:00:35 (h:m:s)

Size: 125626368 bytes

Total Bitrate: 28,69 Mbps

VIDEO:

Codec Bitrate Description

----- ------- -----------

MPEG-4 AVC Video 25020 kbps 1080p / 23,976 fps / 16:9 / High Profile 4.1

AUDIO:

Codec Language Bitrate Description

----- -------- ------- -----------

DTS-HD Master Audio English 2168 kbps 5.1 / 48 kHz / 2168 kbps / 16-bit (DTS Core: 5.1 / 48 kHz / 1509 kbps / 16-bit)

FILES:

Name Time In Length Size Total Bitrate

---- ------- ------ ---- -------------

00003.M2TS 0:00:00.000 0:00:35.034 125626368 28686

CHAPTERS:

Number Time In Length Avg Video Rate Max 1-Sec Rate Max 1-Sec Time Max 5-Sec Rate Max 5-Sec Time Max 10Sec Rate Max 10Sec Time Avg Frame Size Max Frame Size Max Frame Time

------ ------- ------ -------------- -------------- -------------- -------------- -------------- -------------- -------------- -------------- -------------- --------------

1 0:00:00.000 0:00:35.034 25020 kbps 28096 kbps 00:00:33.283 25911 kbps 00:00:04.754 25799 kbps 00:00:00.000 130444 bytes 589191 bytes 00:00:05.004

STREAM DIAGNOSTICS:

File PID Type Codec Language Seconds Bitrate Bytes Packets

---- --- ---- ----- -------- -------------- -------------- ------------- -----

00003.M2TS 4113 (0x1011) 0x1B AVC 34,868 25140 109572814 595990

00003.M2TS 4352 (0x1100) 0x86 DTS-HD MA eng (English) 34,868 2178 9494148 57091
<---- END FORUMS PASTE ---->

QUICK SUMMARY:

Disc Title: SCOFIELD

Disc Size: 24379648375 bytes

Protection: AACS

BD-Java: No

Playlist: 00003.MPLS

Size: 125626368 bytes

Length: 0:00:35

Total Bitrate: 28,69 Mbps

Video: MPEG-4 AVC Video / 25020 kbps / 1080p / 23,976 fps / 16:9 / High Profile 4.1

Audio: English / DTS-HD Master Audio / 5.1 / 48 kHz / 2168 kbps / 16-bit (DTS Core: 5.1 / 48 kHz / 1509 kbps / 16-bit)


 ·  , , FAQ-
:  [ 28--2011 19:12 ]

  

.torrent

.torrent 231 KB


: 22.7 GB
(hash) : e565c6e225909d4b07aadd7f138f4cb121a82dec
··
...

John Scofield: New Morning - The Paris Concert . !

!