VA - Crossroads Eric Clapton Guitar Festival 2010 torrent

, , - AdBlock. #!


58.06 GB   |    :  6    |    .torrent :  67    |   
1  
   
...
 

Galfimbul

avatar Galfimbul


VA - Crossroads Eric Clapton Guitar Festival 2010


: USA
: Blues
: 04:39:12
: 2010
: Rhino Entertainment
: Crossroads Guitar Festival , 2004 . Crossroads Centre. 2007 , Toyota Park , 26 2010 .
2010 :
Albert Lee
B.B. King
Bert Jansch
Buddy Guy
David Hidalgo and Cesar Rosas of Los Lobos
Doyle Bramhall II
Earl Klugh
Eric Clapton
Gary Clark Jr.
Hubert Sumlin
James Burton
Jeff Beck
Jimmie Vaughan
Joao Gilberto
Joe Bonamassa
John Mayer
John Renbourn
Johnny Winter
Jonny Lang
Keb' Mo'
Pino Daniele
Robert Cray
Robert Randolph
Ronnie Wood
Sheryl Crow
Sonny Landreth
Stefan Grossman
Steve Winwood
Susan Tedeschi
Vince Gill
ZZ Top

.

:
[size=12]>>Introduction - Bill Murray
1. Sonny Landreth with Eric Clapton - Promise Land
2. Sonny Landreth - Z Rider
3. Robert Randolph & the Family Band - Traveling Shoes
4. Pino Daniele, Joe Bonamassa, Robert Randolph & The Family Band - Going Down
>>Robert Cray Introduction - Bill Murray
5. Robert Cray with Jimmie Vaughan & Hubert Sumlin - Killing Floor
6. Jimmie Vaughan with Robert Cray & Hubert Sumlin - Six Stings Down
>>ZZ Top Introduction - Bill Murray
7. ZZ Top - Waiting For the Bus
8. ZZ Top - Jesus Just Left Chicago
9. Doyle Bramhall II - Gypsy Blood
10. Doyle Bramhall II - In My Time Of Dying (Jesus Make Up My Dying Bed)
11. Gary Clark Jr. - Bright Lights
12. Sheryl Crow with Derek Trucks, Susan Tedeschi, Doyle Bramhall II & Gary Clark Jr. - Long Road Home
13. Sheryl Crow with Eric Clapton, Doyle Bramhall II & Gary Clark Jr. - Our Love Is Fading
14. Bert Jansch - Blackwaterside
15. Stefan Grossman with Keb Mo - Mississippi Blues
16. Stefan Grossman with Keb Mo - Roll And Tumble Blues
>>Vince Gill Intoduction - Bill Murray
17. Vince Gill with Keb Mo, James Burton, Earl Klugh & Albert Lee - One More Last Chance
18. Vince Gill with James Burton, Albert Lee, Keb Mo, Earl Klugh - Mystery Train
19. Vince Gill with Sheryl Crow, Keb Mo, Albert Lee, James Burton, Earl Klugh - Lay Down Sally
20. Earl Klugh - Angelina
21. Earl Klugh - Vonetta
>>John Mayer Intoduction - Bill Murray
22. John Mayer Trio - Who Did You Think I Was
23. John Mayer Trio - Ain't No Sunshine
[/size]
[size=12]>> Derek Trucks Introduction - Bill Murray
1. Derek Trucks & Susan Tedeschi Band - Midnight In Harlem
2. Derek Trucks & Susan Tedeschi Band with Warren Haynes - Comin' Home
3. Warren Haynes - Soulshine
4. David Hidalgo and Cesar Rojas with Derek Trucks - Don't Keep Me Wondering
5. Derek Trucks & Susan Tedeschi Band with Warren Haynes, David Hidalgo, Cesar Rojas & Chris Stainton - Space Captain
>>Set Intoduction - Bill Murray
6. Buddy Guy with Jonny Lang & Ronnie Wood - Five Long Years
7. Buddy Guy with Jonny Lang & Ronnie Wood - Miss You
>>Jeff Beck Introduction - Bill Murray
8. Jeff Beck - Hammerhead
9. Jeff Beck - Nessun Dorma
>>Eric Clapton Introduction - Bill Murray
10. Eric Clapton - Crossroads
11. Citizen Cope & Eric Clapton - Hands of the Saints
12. Eric Clapton - I Shot The Sheriff
13. Eric Clapton & Jeff Beck - Shake Your Money Maker
14. Eric Clapton & Steve Winwood - Had To Cry Today
15. Eric Clapton & Steve Winwood - Voodoo Chile
16. Eric Clapton & Steve Winwood - Dear Mr. Fantasy
>>B.B. King Introduction - Bill Murray
17. B.B. King & Ensemble - The Thrill Is Gone
[/size]
: Blu-ray
: BDMV
: H.264
: DTS, PCM
: MPEG-4 AVC / ~14983 kbps / 1080p / 23,976 fps / 16:9
#1: DTS-HD Master Audio / 5.1 / 96 kHz / 8176 kbps / 24-bit (DTS Core: 5.1 / 48 kHz / 1509 kbps / 24-bit)
#2: LPCM Audio / 2.0 / 96 kHz / 4608 kbps / 24-bit
: English, Spanish, French, German, Italian, Portuguese
Disc Title:
Disc Size: 31620567997 bytes
Protection: AACS
BD-Java: Yes
BDInfo: 0.5.3

Notes:

BDINFO HOME:
Cinema Squid
http://www.cinemasquid.com/blu-ray/tools/bdinfo

INCLUDES FORUMS REPORT FOR:
AVS Forum Blu-ray Audio and Video Specifications Thread
http://www.avsforum.com/avs-vb/showthread.php?t=1155731

********************
PLAYLIST: 00001.MPLS
********************

<--- BEGIN FORUMS PASTE --->

:

Total Video
Title Codec Length Movie Size Disc Size Bitrate Bitrate Main Audio Track Secondary Audio Track
----- ------ ------- -------------- -------------- ------- ------- ------------------ ---------------------
00001.MPLS AVC 2:22:10 31458822144 31620567997 29,50 14,98 DTS-HD Master 5.1 8176Kbps (96kHz/24-bit) LPCM 2.0 4608Kbps (96kHz/24-bit)[/spoiler]
[code]DISC INFO:

Disc Title:
Disc Size: 31620567997 bytes
Protection: AACS
BD-Java: Yes
BDInfo: 0.5.3

PLAYLIST REPORT:

Name: 00001.MPLS
Length: 2:22:10 (h:m:s)
Size: 31458822144 bytes
Total Bitrate: 29,50 Mbps

VIDEO:

Codec Bitrate Description
----- ------- -----------
MPEG-4 AVC Video 14983 kbps 1080p / 23,976 fps / 16:9 / High Profile 4.1

AUDIO:

Codec Language Bitrate Description
----- -------- ------- -----------
DTS-HD Master Audio English 8176 kbps 5.1 / 96 kHz / 8176 kbps / 24-bit (DTS Core: 5.1 / 48 kHz / 1509 kbps / 24-bit)
LPCM Audio English 4608 kbps 2.0 / 96 kHz / 4608 kbps / 24-bit

SUBTITLES:

Codec Language Bitrate Description
----- -------- ------- -----------
Presentation Graphics English 14,609 kbps
Presentation Graphics French 12,783 kbps
Presentation Graphics German 15,550 kbps
Presentation Graphics Italian 13,953 kbps
Presentation Graphics Portuguese 15,242 kbps
Presentation Graphics Spanish 14,155 kbps

FILES:

Name Time In Length Size Total Bitrate
---- ------- ------ ---- -------------
00001.M2TS 0:00:00.000 2:22:10.146 31458822144 29504

CHAPTERS:

Number Time In Length Avg Video Rate Max 1-Sec Rate Max 1-Sec Time Max 5-Sec Rate Max 5-Sec Time Max 10Sec Rate Max 10Sec Time Avg Frame Size Max Frame Size Max Frame Time
------ ------- ------ -------------- -------------- -------------- -------------- -------------- -------------- -------------- -------------- -------------- --------------
1 0:00:00.000 0:03:28.374 14412 kbps 25448 kbps 00:00:50.925 17834 kbps 00:00:58.183 16508 kbps 00:01:43.812 75121 bytes 341545 bytes 00:02:18.429
2 0:03:28.374 0:05:16.357 14910 kbps 25202 kbps 00:08:19.999 17896 kbps 00:08:19.999 16887 kbps 00:08:19.999 77735 bytes 424820 bytes 00:08:20.041
3 0:08:44.732 0:04:12.794 14885 kbps 22188 kbps 00:10:55.905 16864 kbps 00:11:30.064 16059 kbps 00:10:11.944 77606 bytes 336353 bytes 00:09:49.088
4 0:12:57.526 0:05:03.886 14407 kbps 20541 kbps 00:16:12.846 17510 kbps 00:16:12.846 16739 kbps 00:16:09.593 75110 bytes 292916 bytes 00:18:01.413
5 0:18:01.413 0:04:40.113 15022 kbps 20769 kbps 00:22:08.368 17086 kbps 00:18:40.911 16223 kbps 00:18:40.869 78318 bytes 335918 bytes 00:18:23.644
6 0:22:41.526 0:06:38.272 15366 kbps 21532 kbps 00:25:09.716 17412 kbps 00:24:00.856 16777 kbps 00:28:23.284 80110 bytes 364550 bytes 00:24:10.657
7 0:29:19.799 0:05:59.317 14828 kbps 23327 kbps 00:30:17.190 17203 kbps 00:34:40.411 15986 kbps 00:30:26.032 77305 bytes 351263 bytes 00:34:50.671
8 0:35:19.117 0:05:04.595 14726 kbps 20576 kbps 00:35:31.838 16463 kbps 00:38:43.446 15919 kbps 00:38:42.028 76775 bytes 380447 bytes 00:40:23.003
9 0:40:23.712 0:05:07.473 15343 kbps 20978 kbps 00:44:36.090 18077 kbps 00:41:33.824 17291 kbps 00:41:31.322 79993 bytes 365832 bytes 00:44:59.613
10 0:45:31.186 0:02:57.260 15333 kbps 23017 kbps 00:45:50.080 18278 kbps 00:45:50.080 17001 kbps 00:45:50.080 79941 bytes 384109 bytes 00:45:50.122
11 0:48:28.447 0:05:01.968 15472 kbps 21198 kbps 00:52:04.287 18270 kbps 00:49:48.276 17212 kbps 00:52:28.562 80665 bytes 352818 bytes 00:52:04.329
12 0:53:30.415 0:05:12.645 15083 kbps 21509 kbps 00:56:10.325 18237 kbps 00:55:54.768 17088 kbps 00:55:56.353 78636 bytes 354581 bytes 00:56:10.367
13 0:58:43.061 0:05:20.862 14988 kbps 22427 kbps 00:58:47.982 17360 kbps 00:58:47.524 16468 kbps 01:01:28.851 78142 bytes 351577 bytes 01:01:46.160
14 1:04:03.923 0:07:54.599 15089 kbps 24074 kbps 01:08:09.251 17849 kbps 01:04:37.915 16784 kbps 01:09:24.660 78669 bytes 379401 bytes 01:04:37.957
15 1:11:58.522 0:05:18.067 15147 kbps 23286 kbps 01:12:04.778 18432 kbps 01:15:15.511 16936 kbps 01:15:12.216 78970 bytes 332492 bytes 01:12:02.484
16 1:17:16.590 0:08:34.472 15219 kbps 21036 kbps 01:25:27.080 16740 kbps 01:23:21.162 16380 kbps 01:25:26.079 79345 bytes 339319 bytes 01:19:24.176
17 1:25:51.062 0:04:51.749 14560 kbps 23561 kbps 01:28:39.272 17814 kbps 01:27:58.356 17142 kbps 01:27:54.143 75911 bytes 341311 bytes 01:26:06.953
18 1:30:42.812 0:05:06.723 14498 kbps 19669 kbps 01:33:06.414 16098 kbps 01:33:35.067 15484 kbps 01:33:05.913 75587 bytes 348415 bytes 01:31:02.039
19 1:35:49.535 0:04:17.423 14909 kbps 20582 kbps 01:40:03.038 16641 kbps 01:39:47.398 16075 kbps 01:38:06.672 77731 bytes 329349 bytes 01:37:37.351
20 1:40:06.959 0:01:21.873 15511 kbps 20654 kbps 01:41:24.119 17389 kbps 01:41:23.827 16333 kbps 01:41:02.264 80865 bytes 349735 bytes 01:41:25.954
21 1:41:28.832 0:07:05.425 14952 kbps 22001 kbps 01:41:52.481 16997 kbps 01:41:52.064 16338 kbps 01:41:52.439 77952 bytes 338109 bytes 01:41:59.696
22 1:48:34.257 0:05:17.900 15029 kbps 20404 kbps 01:53:14.412 17085 kbps 01:51:28.640 16020 kbps 01:51:23.718 78357 bytes 351505 bytes 01:53:52.158
23 1:53:52.158 0:06:47.281 15131 kbps 20594 kbps 01:55:55.698 17413 kbps 02:00:26.302 16670 kbps 01:57:30.084 78886 bytes 343681 bytes 01:58:39.612
24 2:00:39.440 0:01:33.051 15203 kbps 20685 kbps 02:01:57.435 16472 kbps 02:00:48.032 15996 kbps 02:01:36.247 79260 bytes 356818 bytes 02:02:12.408
25 2:02:12.491 0:02:04.374 14618 kbps 20074 kbps 02:03:10.216 17010 kbps 02:03:10.216 16406 kbps 02:04:06.856 76209 bytes 389338 bytes 02:03:12.635
26 2:04:16.866 0:08:43.105 15058 kbps 21082 kbps 02:07:04.533 17378 kbps 02:09:42.733 16664 kbps 02:09:42.232 78506 bytes 384377 bytes 02:07:05.367
27 2:12:59.972 0:04:16.464 14868 kbps 19939 kbps 02:14:10.125 16571 kbps 02:14:08.749 15746 kbps 02:16:44.738 77517 bytes 333291 bytes 02:14:10.959
28 2:17:16.436 0:04:52.709 14819 kbps 23818 kbps 02:21:50.627 18905 kbps 02:21:42.785 17653 kbps 02:21:43.119 77257 bytes 351225 bytes 02:17:34.162
29 2:22:09.145 0:00:01.001 31 kbps 0 kbps 00:00:00.000 0 kbps 00:00:00.000 0 kbps 00:00:00.000 174 bytes 839 bytes 02:22:09.979

STREAM DIAGNOSTICS:

File PID Type Codec Language Seconds Bitrate Bytes Packets
---- --- ---- ----- -------- -------------- -------------- ------------- -----
00001.M2TS 4113 (0x1011) 0x1B AVC 8530,063 14983 15976018742 86946457
00001.M2TS 4352 (0x1100) 0x86 DTS-HD MA eng (English) 8530,063 8176 8717278040 48706395
00001.M2TS 4353 (0x1101) 0x80 LPCM eng (English) 8530,063 4614 4919831944 27294506
00001.M2TS 4608 (0x1200) 0x90 PGS eng (English) 8530,063 15 15577473 88181
00001.M2TS 4609 (0x1201) 0x90 PGS fra (French) 8530,063 13 13629656 77485
00001.M2TS 4610 (0x1202) 0x90 PGS deu (German) 8530,063 16 16580867 93653
00001.M2TS 4611 (0x1203) 0x90 PGS ita (Italian) 8530,063 14 14877430 84389
00001.M2TS 4612 (0x1204) 0x90 PGS por (Portuguese) 8530,063 15 16252200 91878
00001.M2TS 4613 (0x1205) 0x90 PGS spa (Spanish) 8530,063 14 15092944 85549[/code]
<---- END FORUMS PASTE ---->

QUICK SUMMARY:

Disc Title:
Disc Size: 31620567997 bytes
Protection: AACS
BD-Java: Yes
Playlist: 00001.MPLS
Size: 31458822144 bytes
Length: 2:22:10
Total Bitrate: 29,50 Mbps
Video: MPEG-4 AVC Video / 14983 kbps / 1080p / 23,976 fps / 16:9 / High Profile 4.1
Audio: English / DTS-HD Master Audio / 5.1 / 96 kHz / 8176 kbps / 24-bit (DTS Core: 5.1 / 48 kHz / 1509 kbps / 24-bit)
Audio: English / LPCM Audio / 2.0 / 96 kHz / 4608 kbps / 24-bit
Subtitle: English / 14,609 kbps
Subtitle: French / 12,783 kbps
Subtitle: German / 15,550 kbps
Subtitle: Italian / 13,953 kbps
Subtitle: Portuguese / 15,242 kbps
Subtitle: Spanish / 14,155 kbps

********************
PLAYLIST: 01001.MPLS
********************

<--- BEGIN FORUMS PASTE --->
[code]Total Video
Title Codec Length Movie Size Disc Size Bitrate Bitrate Main Audio Track Secondary Audio Track
----- ------ ------- -------------- -------------- ------- ------- ------------------ ---------------------
01001.MPLS AVC 2:22:10 31458822144 31620567997 29,50 14,98 DTS-HD Master 5.1 8176Kbps (96kHz/24-bit) LPCM 2.0 4608Kbps (96kHz/24-bit)[/code]
[code]DISC INFO:

Disc Title:
Disc Size: 31620567997 bytes
Protection: AACS
BD-Java: Yes
BDInfo: 0.5.3

PLAYLIST REPORT:

Name: 01001.MPLS
Length: 2:22:10 (h:m:s)
Size: 31458822144 bytes
Total Bitrate: 29,50 Mbps

VIDEO:

Codec Bitrate Description
----- ------- -----------
MPEG-4 AVC Video 14983 kbps 1080p / 23,976 fps / 16:9 / High Profile 4.1

AUDIO:

Codec Language Bitrate Description
----- -------- ------- -----------
DTS-HD Master Audio English 8176 kbps 5.1 / 96 kHz / 8176 kbps / 24-bit (DTS Core: 5.1 / 48 kHz / 1509 kbps / 24-bit)
LPCM Audio English 4608 kbps 2.0 / 96 kHz / 4608 kbps / 24-bit

SUBTITLES:

Codec Language Bitrate Description
----- -------- ------- -----------
Presentation Graphics English 14,609 kbps
Presentation Graphics French 12,783 kbps
Presentation Graphics German 15,550 kbps
Presentation Graphics Italian 13,953 kbps
Presentation Graphics Portuguese 15,242 kbps
Presentation Graphics Spanish 14,155 kbps

FILES:

Name Time In Length Size Total Bitrate
---- ------- ------ ---- -------------
00001.M2TS 0:00:00.000 2:22:10.146 31458822144 29504

CHAPTERS:

Number Time In Length Avg Video Rate Max 1-Sec Rate Max 1-Sec Time Max 5-Sec Rate Max 5-Sec Time Max 10Sec Rate Max 10Sec Time Avg Frame Size Max Frame Size Max Frame Time
------ ------- ------ -------------- -------------- -------------- -------------- -------------- -------------- -------------- -------------- -------------- --------------
1 0:00:00.000 0:03:28.374 14412 kbps 25448 kbps 00:00:50.925 17834 kbps 00:00:58.183 16508 kbps 00:01:43.812 75121 bytes 341545 bytes 00:02:18.429
2 0:03:28.374 0:05:16.357 14910 kbps 25202 kbps 00:08:19.999 17896 kbps 00:08:19.999 16887 kbps 00:08:19.999 77735 bytes 424820 bytes 00:08:20.041
3 0:08:44.732 0:04:12.794 14885 kbps 22188 kbps 00:10:55.905 16864 kbps 00:11:30.064 16059 kbps 00:10:11.944 77606 bytes 336353 bytes 00:09:49.088
4 0:12:57.526 0:05:03.886 14407 kbps 20541 kbps 00:16:12.846 17510 kbps 00:16:12.846 16739 kbps 00:16:09.593 75110 bytes 292916 bytes 00:18:01.413
5 0:18:01.413 0:04:40.113 15022 kbps 20769 kbps 00:22:08.368 17086 kbps 00:18:40.911 16223 kbps 00:18:40.869 78318 bytes 335918 bytes 00:18:23.644
6 0:22:41.526 0:06:38.272 15366 kbps 21532 kbps 00:25:09.716 17412 kbps 00:24:00.856 16777 kbps 00:28:23.284 80110 bytes 364550 bytes 00:24:10.657
7 0:29:19.799 0:05:59.317 14828 kbps 23327 kbps 00:30:17.190 17203 kbps 00:34:40.411 15986 kbps 00:30:26.032 77305 bytes 351263 bytes 00:34:50.671
8 0:35:19.117 0:05:04.595 14726 kbps 20576 kbps 00:35:31.838 16463 kbps 00:38:43.446 15919 kbps 00:38:42.028 76775 bytes 380447 bytes 00:40:23.003
9 0:40:23.712 0:05:07.473 15343 kbps 20978 kbps 00:44:36.090 18077 kbps 00:41:33.824 17291 kbps 00:41:31.322 79993 bytes 365832 bytes 00:44:59.613
10 0:45:31.186 0:02:57.260 15333 kbps 23017 kbps 00:45:50.080 18278 kbps 00:45:50.080 17001 kbps 00:45:50.080 79941 bytes 384109 bytes 00:45:50.122
11 0:48:28.447 0:05:01.968 15472 kbps 21198 kbps 00:52:04.287 18270 kbps 00:49:48.276 17212 kbps 00:52:28.562 80665 bytes 352818 bytes 00:52:04.329
12 0:53:30.415 0:05:12.645 15083 kbps 21509 kbps 00:56:10.325 18237 kbps 00:55:54.768 17088 kbps 00:55:56.353 78636 bytes 354581 bytes 00:56:10.367
13 0:58:43.061 0:05:20.862 14988 kbps 22427 kbps 00:58:47.982 17360 kbps 00:58:47.524 16468 kbps 01:01:28.851 78142 bytes 351577 bytes 01:01:46.160
14 1:04:03.923 0:07:54.599 15089 kbps 24074 kbps 01:08:09.251 17849 kbps 01:04:37.915 16784 kbps 01:09:24.660 78669 bytes 379401 bytes 01:04:37.957
15 1:11:58.522 0:05:18.067 15147 kbps 23286 kbps 01:12:04.778 18432 kbps 01:15:15.511 16936 kbps 01:15:12.216 78970 bytes 332492 bytes 01:12:02.484
16 1:17:16.590 0:08:34.472 15219 kbps 21036 kbps 01:25:27.080 16740 kbps 01:23:21.162 16380 kbps 01:25:26.079 79345 bytes 339319 bytes 01:19:24.176
17 1:25:51.062 0:04:51.749 14560 kbps 23561 kbps 01:28:39.272 17814 kbps 01:27:58.356 17142 kbps 01:27:54.143 75911 bytes 341311 bytes 01:26:06.953
18 1:30:42.812 0:05:06.723 14498 kbps 19669 kbps 01:33:06.414 16098 kbps 01:33:35.067 15484 kbps 01:33:05.913 75587 bytes 348415 bytes 01:31:02.039
19 1:35:49.535 0:04:17.423 14909 kbps 20582 kbps 01:40:03.038 16641 kbps 01:39:47.398 16075 kbps 01:38:06.672 77731 bytes 329349 bytes 01:37:37.351
20 1:40:06.959 0:01:21.873 15511 kbps 20654 kbps 01:41:24.119 17389 kbps 01:41:23.827 16333 kbps 01:41:02.264 80865 bytes 349735 bytes 01:41:25.954
21 1:41:28.832 0:07:05.425 14952 kbps 22001 kbps 01:41:52.481 16997 kbps 01:41:52.064 16338 kbps 01:41:52.439 77952 bytes 338109 bytes 01:41:59.696
22 1:48:34.257 0:05:17.900 15029 kbps 20404 kbps 01:53:14.412 17085 kbps 01:51:28.640 16020 kbps 01:51:23.718 78357 bytes 351505 bytes 01:53:52.158
23 1:53:52.158 0:06:47.281 15131 kbps 20594 kbps 01:55:55.698 17413 kbps 02:00:26.302 16670 kbps 01:57:30.084 78886 bytes 343681 bytes 01:58:39.612
24 2:00:39.440 0:01:33.051 15203 kbps 20685 kbps 02:01:57.435 16472 kbps 02:00:48.032 15996 kbps 02:01:36.247 79260 bytes 356818 bytes 02:02:12.408
25 2:02:12.491 0:02:04.374 14618 kbps 20074 kbps 02:03:10.216 17010 kbps 02:03:10.216 16406 kbps 02:04:06.856 76209 bytes 389338 bytes 02:03:12.635
26 2:04:16.866 0:08:43.105 15058 kbps 21082 kbps 02:07:04.533 17378 kbps 02:09:42.733 16664 kbps 02:09:42.232 78506 bytes 384377 bytes 02:07:05.367
27 2:12:59.972 0:04:16.464 14868 kbps 19939 kbps 02:14:10.125 16571 kbps 02:14:08.749 15746 kbps 02:16:44.738 77517 bytes 333291 bytes 02:14:10.959
28 2:17:16.436 0:04:52.709 14819 kbps 23818 kbps 02:21:50.627 18905 kbps 02:21:42.785 17653 kbps 02:21:43.119 77257 bytes 351225 bytes 02:17:34.162
29 2:22:09.145 0:00:01.001 31 kbps 0 kbps 00:00:00.000 0 kbps 00:00:00.000 0 kbps 00:00:00.000 174 bytes 839 bytes 02:22:09.979

STREAM DIAGNOSTICS:

File PID Type Codec Language Seconds Bitrate Bytes Packets
---- --- ---- ----- -------- -------------- -------------- ------------- -----
00001.M2TS 4113 (0x1011) 0x1B AVC 8530,063 14983 15976018742 86946457
00001.M2TS 4352 (0x1100) 0x86 DTS-HD MA eng (English) 8530,063 8176 8717278040 48706395
00001.M2TS 4353 (0x1101) 0x80 LPCM eng (English) 8530,063 4614 4919831944 27294506
00001.M2TS 4608 (0x1200) 0x90 PGS eng (English) 8530,063 15 15577473 88181
00001.M2TS 4609 (0x1201) 0x90 PGS fra (French) 8530,063 13 13629656 77485
00001.M2TS 4610 (0x1202) 0x90 PGS deu (German) 8530,063 16 16580867 93653
00001.M2TS 4611 (0x1203) 0x90 PGS ita (Italian) 8530,063 14 14877430 84389
00001.M2TS 4612 (0x1204) 0x90 PGS por (Portuguese) 8530,063 15 16252200 91878
00001.M2TS 4613 (0x1205) 0x90 PGS spa (Spanish) 8530,063 14 15092944 85549[/code]
<---- END FORUMS PASTE ---->

QUICK SUMMARY:

Disc Title:
Disc Size: 31620567997 bytes
Protection: AACS
BD-Java: Yes
Playlist: 01001.MPLS
Size: 31458822144 bytes
Length: 2:22:10
Total Bitrate: 29,50 Mbps
Video: MPEG-4 AVC Video / 14983 kbps / 1080p / 23,976 fps / 16:9 / High Profile 4.1
Audio: English / DTS-HD Master Audio / 5.1 / 96 kHz / 8176 kbps / 24-bit (DTS Core: 5.1 / 48 kHz / 1509 kbps / 24-bit)
Audio: English / LPCM Audio / 2.0 / 96 kHz / 4608 kbps / 24-bit
Subtitle: English / 14,609 kbps
Subtitle: French / 12,783 kbps
Subtitle: German / 15,550 kbps
Subtitle: Italian / 13,953 kbps
Subtitle: Portuguese / 15,242 kbps
Subtitle: Spanish / 14,155 kbps

********************
PLAYLIST: 00000.MPLS
********************

<--- BEGIN FORUMS PASTE --->
[code]Total Video
Title Codec Length Movie Size Disc Size Bitrate Bitrate Main Audio Track Secondary Audio Track
----- ------ ------- -------------- -------------- ------- ------- ------------------ ---------------------
00000.MPLS AVC 0:00:49 114309120 31620567997 18,55 14,86 DD AC3 5.1 448Kbps LPCM 2.0 2304Kbps (48kHz/24-bit)[/code]
[code]DISC INFO:

Disc Title:
Disc Size: 31620567997 bytes
Protection: AACS
BD-Java: Yes
BDInfo: 0.5.3

PLAYLIST REPORT:

Name: 00000.MPLS
Length: 0:00:49 (h:m:s)
Size: 114309120 bytes
Total Bitrate: 18,55 Mbps

VIDEO:

Codec Bitrate Description
----- ------- -----------
MPEG-4 AVC Video 14859 kbps 1080p / 23,976 fps / 16:9 / High Profile 4.1

AUDIO:

Codec Language Bitrate Description
----- -------- ------- -----------
Dolby Digital Audio English 448 kbps 5.1 / 48 kHz / 448 kbps / DN -4dB
LPCM Audio English 2304 kbps 2.0 / 48 kHz / 2304 kbps / 24-bit

SUBTITLES:

Codec Language Bitrate Description
----- -------- ------- -----------
Presentation Graphics Undetermined 0,004 kbps
Presentation Graphics Undetermined 0,004 kbps
Presentation Graphics Undetermined 0,004 kbps
Presentation Graphics Undetermined 0,004 kbps
Presentation Graphics Undetermined 0,004 kbps
Presentation Graphics Undetermined 0,004 kbps

FILES:

Name Time In Length Size Total Bitrate
---- ------- ------ ---- -------------
00000.M2TS 0:00:00.000 0:00:49.299 114309120 18549

CHAPTERS:

Number Time In Length Avg Video Rate Max 1-Sec Rate Max 1-Sec Time Max 5-Sec Rate Max 5-Sec Time Max 10Sec Rate Max 10Sec Time Avg Frame Size Max Frame Size Max Frame Time
------ ------- ------ -------------- -------------- -------------- -------------- -------------- -------------- -------------- -------------- -------------- --------------
1 0:00:00.000 0:00:49.299 14859 kbps 16633 kbps 00:00:11.594 15440 kbps 00:00:09.968 15093 kbps 00:00:10.719 77467 bytes 301508 bytes 00:00:21.646

STREAM DIAGNOSTICS:

File PID Type Codec Language Seconds Bitrate Bytes Packets
---- --- ---- ----- -------- -------------- -------------- ------------- -----
00000.M2TS 4113 (0x1011) 0x1B AVC 49,216 14884 91566081 498332
00000.M2TS 4352 (0x1100) 0x81 AC3 eng (English) 49,216 449 2761472 15410
00000.M2TS 4353 (0x1101) 0x80 LPCM eng (English) 49,216 2314 14237624 78879
00000.M2TS 4608 (0x1200) 0x90 PGS und (Undetermined) 49,216 0 22 1
00000.M2TS 4609 (0x1201) 0x90 PGS und (Undetermined) 49,216 0 22 1
00000.M2TS 4610 (0x1202) 0x90 PGS und (Undetermined) 49,216 0 22 1
00000.M2TS 4611 (0x1203) 0x90 PGS und (Undetermined) 49,216 0 22 1
00000.M2TS 4612 (0x1204) 0x90 PGS und (Undetermined) 49,216 0 22 1
00000.M2TS 4613 (0x1205) 0x90 PGS und (Undetermined) 49,216 0 22 1[/code]
<---- END FORUMS PASTE ---->

QUICK SUMMARY:

Disc Title:
Disc Size: 31620567997 bytes
Protection: AACS
BD-Java: Yes
Playlist: 00000.MPLS
Size: 114309120 bytes
Length: 0:00:49
Total Bitrate: 18,55 Mbps
Video: MPEG-4 AVC Video / 14859 kbps / 1080p / 23,976 fps / 16:9 / High Profile 4.1
Audio: English / Dolby Digital Audio / 5.1 / 48 kHz / 448 kbps / DN -4dB
Audio: English / LPCM Audio / 2.0 / 48 kHz / 2304 kbps / 24-bit
Subtitle: Undetermined / 0,004 kbps
Subtitle: Undetermined / 0,004 kbps
Subtitle: Undetermined / 0,004 kbps
Subtitle: Undetermined / 0,004 kbps
Subtitle: Undetermined / 0,004 kbps
Subtitle: Undetermined / 0,004 kbps

********************
PLAYLIST: 01000.MPLS
********************

<--- BEGIN FORUMS PASTE --->
[code]Total Video
Title Codec Length Movie Size Disc Size Bitrate Bitrate Main Audio Track Secondary Audio Track
----- ------ ------- -------------- -------------- ------- ------- ------------------ ---------------------
01000.MPLS AVC 0:00:49 114309120 31620567997 18,55 14,86 DD AC3 5.1 448Kbps LPCM 2.0 2304Kbps (48kHz/24-bit)[/code]
[code]DISC INFO:

Disc Title:
Disc Size: 31620567997 bytes
Protection: AACS
BD-Java: Yes
BDInfo: 0.5.3

PLAYLIST REPORT:

Name: 01000.MPLS
Length: 0:00:49 (h:m:s)
Size: 114309120 bytes
Total Bitrate: 18,55 Mbps

VIDEO:

Codec Bitrate Description
----- ------- -----------
MPEG-4 AVC Video 14859 kbps 1080p / 23,976 fps / 16:9 / High Profile 4.1

AUDIO:

Codec Language Bitrate Description
----- -------- ------- -----------
Dolby Digital Audio English 448 kbps 5.1 / 48 kHz / 448 kbps / DN -4dB
LPCM Audio English 2304 kbps 2.0 / 48 kHz / 2304 kbps / 24-bit

SUBTITLES:

Codec Language Bitrate Description
----- -------- ------- -----------
Presentation Graphics Undetermined 0,004 kbps
Presentation Graphics Undetermined 0,004 kbps
Presentation Graphics Undetermined 0,004 kbps
Presentation Graphics Undetermined 0,004 kbps
Presentation Graphics Undetermined 0,004 kbps
Presentation Graphics Undetermined 0,004 kbps

FILES:

Name Time In Length Size Total Bitrate
---- ------- ------ ---- -------------
00000.M2TS 0:00:00.000 0:00:49.299 114309120 18549

CHAPTERS:

Number Time In Length Avg Video Rate Max 1-Sec Rate Max 1-Sec Time Max 5-Sec Rate Max 5-Sec Time Max 10Sec Rate Max 10Sec Time Avg Frame Size Max Frame Size Max Frame Time
------ ------- ------ -------------- -------------- -------------- -------------- -------------- -------------- -------------- -------------- -------------- --------------
1 0:00:00.000 0:00:49.299 14859 kbps 16633 kbps 00:00:11.594 15440 kbps 00:00:09.968 15093 kbps 00:00:10.719 77467 bytes 301508 bytes 00:00:21.646

STREAM DIAGNOSTICS:

File PID Type Codec Language Seconds Bitrate Bytes Packets
---- --- ---- ----- -------- -------------- -------------- ------------- -----
00000.M2TS 4113 (0x1011) 0x1B AVC 49,216 14884 91566081 498332
00000.M2TS 4352 (0x1100) 0x81 AC3 eng (English) 49,216 449 2761472 15410
00000.M2TS 4353 (0x1101) 0x80 LPCM eng (English) 49,216 2314 14237624 78879
00000.M2TS 4608 (0x1200) 0x90 PGS und (Undetermined) 49,216 0 22 1
00000.M2TS 4609 (0x1201) 0x90 PGS und (Undetermined) 49,216 0 22 1
00000.M2TS 4610 (0x1202) 0x90 PGS und (Undetermined) 49,216 0 22 1
00000.M2TS 4611 (0x1203) 0x90 PGS und (Undetermined) 49,216 0 22 1
00000.M2TS 4612 (0x1204) 0x90 PGS und (Undetermined) 49,216 0 22 1
00000.M2TS 4613 (0x1205) 0x90 PGS und (Undetermined) 49,216 0 22 1[/code]
<---- END FORUMS PASTE ---->

QUICK SUMMARY:

Disc Title:
Disc Size: 31620567997 bytes
Protection: AACS
BD-Java: Yes
Playlist: 01000.MPLS
Size: 114309120 bytes
Length: 0:00:49
Total Bitrate: 18,55 Mbps
Video: MPEG-4 AVC Video / 14859 kbps / 1080p / 23,976 fps / 16:9 / High Profile 4.1
Audio: English / Dolby Digital Audio / 5.1 / 48 kHz / 448 kbps / DN -4dB
Audio: English / LPCM Audio / 2.0 / 48 kHz / 2304 kbps / 24-bit
Subtitle: Undetermined / 0,004 kbps
Subtitle: Undetermined / 0,004 kbps
Subtitle: Undetermined / 0,004 kbps
Subtitle: Undetermined / 0,004 kbps
Subtitle: Undetermined / 0,004 kbps
Subtitle: Undetermined / 0,004 kbps
: Blu-ray
: BDMV
: H.264
: DTS, PCM
: MPEG-4 AVC Video / 14979 kbps / 1080p / 23,976 fps / 16:9
#1: DTS-HD Master Audio / 5.1 / 96 kHz / 8352 kbps / 24-bit (DTS Core: 5.1 / 48 kHz / 1509 kbps / 24-bit)
#2: LPCM Audio / 2.0 / 96 kHz / 4608 kbps / 24-bit
: English, Spanish, French, German, Italian, Portuguese
Disc Title:
Disc Size: 30724462454 bytes
Protection: AACS
BD-Java: Yes
BDInfo: 0.5.3

Notes:

BDINFO HOME:
Cinema Squid
http://www.cinemasquid.com/blu-ray/tools/bdinfo

INCLUDES FORUMS REPORT FOR:
AVS Forum Blu-ray Audio and Video Specifications Thread
http://www.avsforum.com/avs-vb/showthread.php?t=1155731

********************
PLAYLIST: 00001.MPLS
********************

<--- BEGIN FORUMS PASTE --->

:

Total Video
Title Codec Length Movie Size Disc Size Bitrate Bitrate Main Audio Track Secondary Audio Track
----- ------ ------- -------------- -------------- ------- ------- ------------------ ---------------------
00001.MPLS AVC 2:17:19 30537590784 30724462454 29,65 14,98 DTS-HD Master 5.1 8352Kbps (96kHz/24-bit) LPCM 2.0 4608Kbps (96kHz/24-bit)[/spoiler]
[code]DISC INFO:

Disc Title:
Disc Size: 30724462454 bytes
Protection: AACS
BD-Java: Yes
BDInfo: 0.5.3

PLAYLIST REPORT:

Name: 00001.MPLS
Length: 2:17:19 (h:m:s)
Size: 30537590784 bytes
Total Bitrate: 29,65 Mbps

VIDEO:

Codec Bitrate Description
----- ------- -----------
MPEG-4 AVC Video 14979 kbps 1080p / 23,976 fps / 16:9 / High Profile 4.1

AUDIO:

Codec Language Bitrate Description
----- -------- ------- -----------
DTS-HD Master Audio English 8352 kbps 5.1 / 96 kHz / 8352 kbps / 24-bit (DTS Core: 5.1 / 48 kHz / 1509 kbps / 24-bit)
LPCM Audio English 4608 kbps 2.0 / 96 kHz / 4608 kbps / 24-bit

SUBTITLES:

Codec Language Bitrate Description
----- -------- ------- -----------
Presentation Graphics English 8,592 kbps
Presentation Graphics French 7,414 kbps
Presentation Graphics German 9,260 kbps
Presentation Graphics Italian 8,194 kbps
Presentation Graphics Portuguese 9,097 kbps
Presentation Graphics Spanish 8,426 kbps

FILES:

Name Time In Length Size Total Bitrate
---- ------- ------ ---- -------------
00001.M2TS 0:00:00.000 2:17:19.856 30537590784 29649

CHAPTERS:

Number Time In Length Avg Video Rate Max 1-Sec Rate Max 1-Sec Time Max 5-Sec Rate Max 5-Sec Time Max 10Sec Rate Max 10Sec Time Avg Frame Size Max Frame Size Max Frame Time
------ ------- ------ -------------- -------------- -------------- -------------- -------------- -------------- -------------- -------------- -------------- --------------
1 0:00:00.000 0:01:39.891 15327 kbps 21335 kbps 00:00:57.223 17254 kbps 00:00:01.251 16502 kbps 00:00:01.251 79873 bytes 378989 bytes 00:00:57.265
2 0:01:39.891 0:08:09.572 15364 kbps 22289 kbps 00:08:05.193 17547 kbps 00:05:36.294 16531 kbps 00:03:01.890 80100 bytes 369076 bytes 00:05:37.128
3 0:09:49.463 0:05:03.928 15468 kbps 21071 kbps 00:14:33.497 17271 kbps 00:10:24.832 16392 kbps 00:10:21.495 80644 bytes 332230 bytes 00:12:03.764
4 0:14:53.392 0:06:28.638 15266 kbps 21392 kbps 00:21:09.476 17105 kbps 00:21:08.141 16544 kbps 00:20:25.849 79592 bytes 344177 bytes 00:21:04.471
5 0:21:22.030 0:05:12.395 15486 kbps 21526 kbps 00:26:19.119 17719 kbps 00:26:17.701 16858 kbps 00:25:06.713 80736 bytes 363767 bytes 00:25:10.842
6 0:26:34.426 0:07:30.408 15610 kbps 22284 kbps 00:33:23.334 19447 kbps 00:33:23.334 18843 kbps 00:33:23.334 81381 bytes 353618 bytes 00:32:50.343
7 0:34:04.834 0:09:13.386 15340 kbps 21638 kbps 00:42:11.362 17802 kbps 00:42:11.362 16901 kbps 00:42:06.440 79974 bytes 359242 bytes 00:42:11.403
8 0:43:18.220 0:08:24.003 15787 kbps 22917 kbps 00:50:15.637 18676 kbps 00:48:40.959 18262 kbps 00:50:15.637 82304 bytes 349885 bytes 00:46:59.024
9 0:51:42.224 0:04:49.580 15426 kbps 21092 kbps 00:54:36.273 17750 kbps 00:54:36.273 17036 kbps 00:54:35.438 80426 bytes 346120 bytes 00:56:13.661
10 0:56:31.805 0:06:29.639 15111 kbps 21181 kbps 01:02:39.630 16802 kbps 00:59:44.998 16351 kbps 01:00:08.021 78780 bytes 293239 bytes 00:58:20.288
11 1:03:01.444 0:06:07.950 15419 kbps 22021 kbps 01:08:22.640 18248 kbps 01:08:22.640 17764 kbps 01:08:21.639 80386 bytes 254630 bytes 01:03:10.536
12 1:09:09.395 0:07:31.033 14950 kbps 21809 kbps 01:10:48.619 18015 kbps 01:10:48.577 16435 kbps 01:10:48.577 77944 bytes 256176 bytes 01:13:10.135
13 1:16:40.429 0:08:57.078 15001 kbps 23643 kbps 01:19:54.456 16942 kbps 01:19:53.580 16432 kbps 01:23:13.905 78210 bytes 295934 bytes 01:19:54.664
14 1:25:37.507 0:04:07.247 14987 kbps 22637 kbps 01:27:17.148 17700 kbps 01:27:25.281 16506 kbps 01:27:23.154 78136 bytes 246073 bytes 01:25:44.097
15 1:29:44.754 0:06:44.320 15026 kbps 19721 kbps 01:30:01.729 16983 kbps 01:33:37.069 16603 kbps 01:35:20.381 78336 bytes 267880 bytes 01:36:28.157
16 1:36:29.074 0:13:15.711 14572 kbps 19779 kbps 01:49:34.109 17005 kbps 01:44:59.710 16214 kbps 01:44:54.329 75970 bytes 251145 bytes 01:49:39.990
17 1:49:44.786 0:09:12.218 14888 kbps 19540 kbps 01:58:53.126 17566 kbps 01:58:46.452 16902 kbps 01:58:46.452 77618 bytes 275001 bytes 01:57:46.976
18 1:58:57.004 0:18:21.600 13616 kbps 22113 kbps 02:05:50.918 17638 kbps 02:00:54.538 16840 kbps 02:00:49.533 70988 bytes 258422 bytes 02:01:22.483
19 2:17:18.605 0:00:01.251 30 kbps 33 kbps 02:17:18.605 0 kbps 00:00:00.000 0 kbps 00:00:00.000 167 bytes 839 bytes 02:17:19.439

STREAM DIAGNOSTICS:

File PID Type Codec Language Seconds Bitrate Bytes Packets
---- --- ---- ----- -------- -------------- -------------- ------------- -----
00001.M2TS 4113 (0x1011) 0x1B AVC 8239,773 14979 15428196536 83964814
00001.M2TS 4352 (0x1100) 0x86 DTS-HD MA eng (English) 8239,773 8352 8602445976 48038101
00001.M2TS 4353 (0x1101) 0x80 LPCM eng (English) 8239,773 4617 4755280516 26381599
00001.M2TS 4608 (0x1200) 0x90 PGS eng (English) 8239,773 9 8849935 50333
00001.M2TS 4609 (0x1201) 0x90 PGS fra (French) 8239,773 7 7635971 43564
00001.M2TS 4610 (0x1202) 0x90 PGS deu (German) 8239,773 9 9537817 54074
00001.M2TS 4611 (0x1203) 0x90 PGS ita (Italian) 8239,773 8 8439201 48118
00001.M2TS 4612 (0x1204) 0x90 PGS por (Portuguese) 8239,773 9 9369367 53145
00001.M2TS 4613 (0x1205) 0x90 PGS spa (Spanish) 8239,773 8 8678146 49365[/code]
<---- END FORUMS PASTE ---->

QUICK SUMMARY:

Disc Title:
Disc Size: 30724462454 bytes
Protection: AACS
BD-Java: Yes
Playlist: 00001.MPLS
Size: 30537590784 bytes
Length: 2:17:19
Total Bitrate: 29,65 Mbps
Video: MPEG-4 AVC Video / 14979 kbps / 1080p / 23,976 fps / 16:9 / High Profile 4.1
Audio: English / DTS-HD Master Audio / 5.1 / 96 kHz / 8352 kbps / 24-bit (DTS Core: 5.1 / 48 kHz / 1509 kbps / 24-bit)
Audio: English / LPCM Audio / 2.0 / 96 kHz / 4608 kbps / 24-bit
Subtitle: English / 8,592 kbps
Subtitle: French / 7,414 kbps
Subtitle: German / 9,260 kbps
Subtitle: Italian / 8,194 kbps
Subtitle: Portuguese / 9,097 kbps
Subtitle: Spanish / 8,426 kbps

********************
PLAYLIST: 01001.MPLS
********************

<--- BEGIN FORUMS PASTE --->
[code]Total Video
Title Codec Length Movie Size Disc Size Bitrate Bitrate Main Audio Track Secondary Audio Track
----- ------ ------- -------------- -------------- ------- ------- ------------------ ---------------------
01001.MPLS AVC 2:17:19 30537590784 30724462454 29,65 14,98 DTS-HD Master 5.1 8352Kbps (96kHz/24-bit) LPCM 2.0 4608Kbps (96kHz/24-bit)[/code]
[code]DISC INFO:

Disc Title:
Disc Size: 30724462454 bytes
Protection: AACS
BD-Java: Yes
BDInfo: 0.5.3

PLAYLIST REPORT:

Name: 01001.MPLS
Length: 2:17:19 (h:m:s)
Size: 30537590784 bytes
Total Bitrate: 29,65 Mbps

VIDEO:

Codec Bitrate Description
----- ------- -----------
MPEG-4 AVC Video 14979 kbps 1080p / 23,976 fps / 16:9 / High Profile 4.1

AUDIO:

Codec Language Bitrate Description
----- -------- ------- -----------
DTS-HD Master Audio English 8352 kbps 5.1 / 96 kHz / 8352 kbps / 24-bit (DTS Core: 5.1 / 48 kHz / 1509 kbps / 24-bit)
LPCM Audio English 4608 kbps 2.0 / 96 kHz / 4608 kbps / 24-bit

SUBTITLES:

Codec Language Bitrate Description
----- -------- ------- -----------
Presentation Graphics English 8,592 kbps
Presentation Graphics French 7,414 kbps
Presentation Graphics German 9,260 kbps
Presentation Graphics Italian 8,194 kbps
Presentation Graphics Portuguese 9,097 kbps
Presentation Graphics Spanish 8,426 kbps

FILES:

Name Time In Length Size Total Bitrate
---- ------- ------ ---- -------------
00001.M2TS 0:00:00.000 2:17:19.856 30537590784 29649

CHAPTERS:

Number Time In Length Avg Video Rate Max 1-Sec Rate Max 1-Sec Time Max 5-Sec Rate Max 5-Sec Time Max 10Sec Rate Max 10Sec Time Avg Frame Size Max Frame Size Max Frame Time
------ ------- ------ -------------- -------------- -------------- -------------- -------------- -------------- -------------- -------------- -------------- --------------
1 0:00:00.000 0:01:39.891 15327 kbps 21335 kbps 00:00:57.223 17254 kbps 00:00:01.251 16502 kbps 00:00:01.251 79873 bytes 378989 bytes 00:00:57.265
2 0:01:39.891 0:08:09.572 15364 kbps 22289 kbps 00:08:05.193 17547 kbps 00:05:36.294 16531 kbps 00:03:01.890 80100 bytes 369076 bytes 00:05:37.128
3 0:09:49.463 0:05:03.928 15468 kbps 21071 kbps 00:14:33.497 17271 kbps 00:10:24.832 16392 kbps 00:10:21.495 80644 bytes 332230 bytes 00:12:03.764
4 0:14:53.392 0:06:28.638 15266 kbps 21392 kbps 00:21:09.476 17105 kbps 00:21:08.141 16544 kbps 00:20:25.849 79592 bytes 344177 bytes 00:21:04.471
5 0:21:22.030 0:05:12.395 15486 kbps 21526 kbps 00:26:19.119 17719 kbps 00:26:17.701 16858 kbps 00:25:06.713 80736 bytes 363767 bytes 00:25:10.842
6 0:26:34.426 0:07:30.408 15610 kbps 22284 kbps 00:33:23.334 19447 kbps 00:33:23.334 18843 kbps 00:33:23.334 81381 bytes 353618 bytes 00:32:50.343
7 0:34:04.834 0:09:13.386 15340 kbps 21638 kbps 00:42:11.362 17802 kbps 00:42:11.362 16901 kbps 00:42:06.440 79974 bytes 359242 bytes 00:42:11.403
8 0:43:18.220 0:08:24.003 15787 kbps 22917 kbps 00:50:15.637 18676 kbps 00:48:40.959 18262 kbps 00:50:15.637 82304 bytes 349885 bytes 00:46:59.024
9 0:51:42.224 0:04:49.580 15426 kbps 21092 kbps 00:54:36.273 17750 kbps 00:54:36.273 17036 kbps 00:54:35.438 80426 bytes 346120 bytes 00:56:13.661
10 0:56:31.805 0:06:29.639 15111 kbps 21181 kbps 01:02:39.630 16802 kbps 00:59:44.998 16351 kbps 01:00:08.021 78780 bytes 293239 bytes 00:58:20.288
11 1:03:01.444 0:06:07.950 15419 kbps 22021 kbps 01:08:22.640 18248 kbps 01:08:22.640 17764 kbps 01:08:21.639 80386 bytes 254630 bytes 01:03:10.536
12 1:09:09.395 0:07:31.033 14950 kbps 21809 kbps 01:10:48.619 18015 kbps 01:10:48.577 16435 kbps 01:10:48.577 77944 bytes 256176 bytes 01:13:10.135
13 1:16:40.429 0:08:57.078 15001 kbps 23643 kbps 01:19:54.456 16942 kbps 01:19:53.580 16432 kbps 01:23:13.905 78210 bytes 295934 bytes 01:19:54.664
14 1:25:37.507 0:04:07.247 14987 kbps 22637 kbps 01:27:17.148 17700 kbps 01:27:25.281 16506 kbps 01:27:23.154 78136 bytes 246073 bytes 01:25:44.097
15 1:29:44.754 0:06:44.320 15026 kbps 19721 kbps 01:30:01.729 16983 kbps 01:33:37.069 16603 kbps 01:35:20.381 78336 bytes 267880 bytes 01:36:28.157
16 1:36:29.074 0:13:15.711 14572 kbps 19779 kbps 01:49:34.109 17005 kbps 01:44:59.710 16214 kbps 01:44:54.329 75970 bytes 251145 bytes 01:49:39.990
17 1:49:44.786 0:09:12.218 14888 kbps 19540 kbps 01:58:53.126 17566 kbps 01:58:46.452 16902 kbps 01:58:46.452 77618 bytes 275001 bytes 01:57:46.976
18 1:58:57.004 0:18:21.600 13616 kbps 22113 kbps 02:05:50.918 17638 kbps 02:00:54.538 16840 kbps 02:00:49.533 70988 bytes 258422 bytes 02:01:22.483
19 2:17:18.605 0:00:01.251 30 kbps 33 kbps 02:17:18.605 0 kbps 00:00:00.000 0 kbps 00:00:00.000 167 bytes 839 bytes 02:17:19.439

STREAM DIAGNOSTICS:

File PID Type Codec Language Seconds Bitrate Bytes Packets
---- --- ---- ----- -------- -------------- -------------- ------------- -----
00001.M2TS 4113 (0x1011) 0x1B AVC 8239,773 14979 15428196536 83964814
00001.M2TS 4352 (0x1100) 0x86 DTS-HD MA eng (English) 8239,773 8352 8602445976 48038101
00001.M2TS 4353 (0x1101) 0x80 LPCM eng (English) 8239,773 4617 4755280516 26381599
00001.M2TS 4608 (0x1200) 0x90 PGS eng (English) 8239,773 9 8849935 50333
00001.M2TS 4609 (0x1201) 0x90 PGS fra (French) 8239,773 7 7635971 43564
00001.M2TS 4610 (0x1202) 0x90 PGS deu (German) 8239,773 9 9537817 54074
00001.M2TS 4611 (0x1203) 0x90 PGS ita (Italian) 8239,773 8 8439201 48118
00001.M2TS 4612 (0x1204) 0x90 PGS por (Portuguese) 8239,773 9 9369367 53145
00001.M2TS 4613 (0x1205) 0x90 PGS spa (Spanish) 8239,773 8 8678146 49365[/code]
<---- END FORUMS PASTE ---->

QUICK SUMMARY:

Disc Title:
Disc Size: 30724462454 bytes
Protection: AACS
BD-Java: Yes
Playlist: 01001.MPLS
Size: 30537590784 bytes
Length: 2:17:19
Total Bitrate: 29,65 Mbps
Video: MPEG-4 AVC Video / 14979 kbps / 1080p / 23,976 fps / 16:9 / High Profile 4.1
Audio: English / DTS-HD Master Audio / 5.1 / 96 kHz / 8352 kbps / 24-bit (DTS Core: 5.1 / 48 kHz / 1509 kbps / 24-bit)
Audio: English / LPCM Audio / 2.0 / 96 kHz / 4608 kbps / 24-bit
Subtitle: English / 8,592 kbps
Subtitle: French / 7,414 kbps
Subtitle: German / 9,260 kbps
Subtitle: Italian / 8,194 kbps
Subtitle: Portuguese / 9,097 kbps
Subtitle: Spanish / 8,426 kbps

********************
PLAYLIST: 00000.MPLS
********************

<--- BEGIN FORUMS PASTE --->
[code]Total Video
Title Codec Length Movie Size Disc Size Bitrate Bitrate Main Audio Track Secondary Audio Track
----- ------ ------- -------------- -------------- ------- ------- ------------------ ---------------------
00000.MPLS AVC 0:00:55 149723136 30724462454 21,69 17,87 DD AC3 5.1 448Kbps LPCM 2.0 2304Kbps (48kHz/24-bit)[/code]
[code]DISC INFO:

Disc Title:
Disc Size: 30724462454 bytes
Protection: AACS
BD-Java: Yes
BDInfo: 0.5.3

PLAYLIST REPORT:

Name: 00000.MPLS
Length: 0:00:55 (h:m:s)
Size: 149723136 bytes
Total Bitrate: 21,69 Mbps

VIDEO:

Codec Bitrate Description
----- ------- -----------
MPEG-4 AVC Video 17871 kbps 1080p / 23,976 fps / 16:9 / High Profile 4.1

AUDIO:

Codec Language Bitrate Description
----- -------- ------- -----------
Dolby Digital Audio English 448 kbps 5.1 / 48 kHz / 448 kbps / DN -4dB
LPCM Audio English 2304 kbps 2.0 / 48 kHz / 2304 kbps / 24-bit

SUBTITLES:

Codec Language Bitrate Description
----- -------- ------- -----------
Presentation Graphics English 0,003 kbps
Presentation Graphics French 0,003 kbps
Presentation Graphics German 0,003 kbps
Presentation Graphics Italian 0,003 kbps
Presentation Graphics Portuguese 0,003 kbps
Presentation Graphics Spanish 0,003 kbps

FILES:

Name Time In Length Size Total Bitrate
---- ------- ------ ---- -------------
00000.M2TS 0:00:00.000 0:00:55.221 149723136 21690

CHAPTERS:

Number Time In Length Avg Video Rate Max 1-Sec Rate Max 1-Sec Time Max 5-Sec Rate Max 5-Sec Time Max 10Sec Rate Max 10Sec Time Avg Frame Size Max Frame Size Max Frame Time
------ ------- ------ -------------- -------------- -------------- -------------- -------------- -------------- -------------- -------------- -------------- --------------
1 0:00:00.000 0:00:55.221 17871 kbps 20176 kbps 00:00:00.208 18376 kbps 00:00:26.443 18182 kbps 00:00:25.525 93174 bytes 259332 bytes 00:00:46.254

STREAM DIAGNOSTICS:

File PID Type Codec Language Seconds Bitrate Bytes Packets
---- --- ---- ----- -------- -------------- -------------- ------------- -----
00000.M2TS 4113 (0x1011) 0x1B AVC 55,097 17912 123361715 671212
00000.M2TS 4352 (0x1100) 0x81 AC3 eng (English) 55,097 449 3092992 17260
00000.M2TS 4353 (0x1101) 0x80 LPCM eng (English) 55,097 2316 15948068 88355
00000.M2TS 4608 (0x1200) 0x90 PGS eng (English) 55,097 0 22 1
00000.M2TS 4609 (0x1201) 0x90 PGS fra (French) 55,097 0 22 1
00000.M2TS 4610 (0x1202) 0x90 PGS deu (German) 55,097 0 22 1
00000.M2TS 4611 (0x1203) 0x90 PGS ita (Italian) 55,097 0 22 1
00000.M2TS 4612 (0x1204) 0x90 PGS por (Portuguese) 55,097 0 22 1
00000.M2TS 4613 (0x1205) 0x90 PGS spa (Spanish) 55,097 0 22 1[/code]
<---- END FORUMS PASTE ---->

QUICK SUMMARY:

Disc Title:
Disc Size: 30724462454 bytes
Protection: AACS
BD-Java: Yes
Playlist: 00000.MPLS
Size: 149723136 bytes
Length: 0:00:55
Total Bitrate: 21,69 Mbps
Video: MPEG-4 AVC Video / 17871 kbps / 1080p / 23,976 fps / 16:9 / High Profile 4.1
Audio: English / Dolby Digital Audio / 5.1 / 48 kHz / 448 kbps / DN -4dB
Audio: English / LPCM Audio / 2.0 / 48 kHz / 2304 kbps / 24-bit
Subtitle: English / 0,003 kbps
Subtitle: French / 0,003 kbps
Subtitle: German / 0,003 kbps
Subtitle: Italian / 0,003 kbps
Subtitle: Portuguese / 0,003 kbps
Subtitle: Spanish / 0,003 kbps

********************
PLAYLIST: 01000.MPLS
********************

<--- BEGIN FORUMS PASTE --->
[code]Total Video
Title Codec Length Movie Size Disc Size Bitrate Bitrate Main Audio Track Secondary Audio Track
----- ------ ------- -------------- -------------- ------- ------- ------------------ ---------------------
01000.MPLS AVC 0:00:55 149723136 30724462454 21,69 17,87 DD AC3 5.1 448Kbps LPCM 2.0 2304Kbps (48kHz/24-bit)[/code]
[code]DISC INFO:

Disc Title:
Disc Size: 30724462454 bytes
Protection: AACS
BD-Java: Yes
BDInfo: 0.5.3

PLAYLIST REPORT:

Name: 01000.MPLS
Length: 0:00:55 (h:m:s)
Size: 149723136 bytes
Total Bitrate: 21,69 Mbps

VIDEO:

Codec Bitrate Description
----- ------- -----------
MPEG-4 AVC Video 17871 kbps 1080p / 23,976 fps / 16:9 / High Profile 4.1

AUDIO:

Codec Language Bitrate Description
----- -------- ------- -----------
Dolby Digital Audio English 448 kbps 5.1 / 48 kHz / 448 kbps / DN -4dB
LPCM Audio English 2304 kbps 2.0 / 48 kHz / 2304 kbps / 24-bit

SUBTITLES:

Codec Language Bitrate Description
----- -------- ------- -----------
Presentation Graphics English 0,003 kbps
Presentation Graphics French 0,003 kbps
Presentation Graphics German 0,003 kbps
Presentation Graphics Italian 0,003 kbps
Presentation Graphics Portuguese 0,003 kbps
Presentation Graphics Spanish 0,003 kbps

FILES:

Name Time In Length Size Total Bitrate
---- ------- ------ ---- -------------
00000.M2TS 0:00:00.000 0:00:55.221 149723136 21690

CHAPTERS:

Number Time In Length Avg Video Rate Max 1-Sec Rate Max 1-Sec Time Max 5-Sec Rate Max 5-Sec Time Max 10Sec Rate Max 10Sec Time Avg Frame Size Max Frame Size Max Frame Time
------ ------- ------ -------------- -------------- -------------- -------------- -------------- -------------- -------------- -------------- -------------- --------------
1 0:00:00.000 0:00:55.221 17871 kbps 20176 kbps 00:00:00.208 18376 kbps 00:00:26.443 18182 kbps 00:00:25.525 93174 bytes 259332 bytes 00:00:46.254

STREAM DIAGNOSTICS:

File PID Type Codec Language Seconds Bitrate Bytes Packets
---- --- ---- ----- -------- -------------- -------------- ------------- -----
00000.M2TS 4113 (0x1011) 0x1B AVC 55,097 17912 123361715 671212
00000.M2TS 4352 (0x1100) 0x81 AC3 eng (English) 55,097 449 3092992 17260
00000.M2TS 4353 (0x1101) 0x80 LPCM eng (English) 55,097 2316 15948068 88355
00000.M2TS 4608 (0x1200) 0x90 PGS eng (English) 55,097 0 22 1
00000.M2TS 4609 (0x1201) 0x90 PGS fra (French) 55,097 0 22 1
00000.M2TS 4610 (0x1202) 0x90 PGS deu (German) 55,097 0 22 1
00000.M2TS 4611 (0x1203) 0x90 PGS ita (Italian) 55,097 0 22 1
00000.M2TS 4612 (0x1204) 0x90 PGS por (Portuguese) 55,097 0 22 1
00000.M2TS 4613 (0x1205) 0x90 PGS spa (Spanish) 55,097 0 22 1[/code]
<---- END FORUMS PASTE ---->

QUICK SUMMARY:

Disc Title:
Disc Size: 30724462454 bytes
Protection: AACS
BD-Java: Yes
Playlist: 01000.MPLS
Size: 149723136 bytes
Length: 0:00:55
Total Bitrate: 21,69 Mbps
Video: MPEG-4 AVC Video / 17871 kbps / 1080p / 23,976 fps / 16:9 / High Profile 4.1
Audio: English / Dolby Digital Audio / 5.1 / 48 kHz / 448 kbps / DN -4dB
Audio: English / LPCM Audio / 2.0 / 48 kHz / 2304 kbps / 24-bit
Subtitle: English / 0,003 kbps
Subtitle: French / 0,003 kbps
Subtitle: German / 0,003 kbps
Subtitle: Italian / 0,003 kbps
Subtitle: Portuguese / 0,003 kbps
Subtitle: Spanish / 0,003 kbps


 ·  , , FAQ-
:  [ 28--2011 19:10 ]

  

.torrent

.torrent 91 KB


: 58.06 GB
(hash) : 71215eb4c79ca2307b67233d436793e67ac28e89
··
...

, VA - Crossroads Eric Clapton Guitar Festival 2010

S L
Jazz, Blues (video) ·· VA - Crossroads Eric Clapton Guitar Festival 2010 [2010, Blues, 2xDVD9] Galfimbul 1483534745613.82 GB 0 0 1311912947

07:15

29--11

Jazz, Blues (video) ·· VA - Crossroads Eric Clapton Guitar Festival 2010 [2010, Blues, BDRip 720p] Galfimbul 1721440976716.03 GB 0 0 1311882090

22:41

28--11

VA - Crossroads Eric Clapton Guitar Festival 2010 . !

!