Yanni Live! The Concert Event torrent

, , - AdBlock. #!


21.77 GB   |    :  6    |    .torrent :  291    |   
1  
   
...
 

Galfimbul

avatar Galfimbul


Yanni Live! The Concert Event

: 2006
: | Image Entertainment
: New Age
: 01:21:16
: ,
: , Charlie Adams, Michelle Amato, Victor Espinola, Pedro Eustache, Ramon Flores, Ming Freeman, Alfreda Gerald, David Hudson, Hussain Jiffry, Sayaka Katsuki, Dan Landrum, Armen Movsessian, Walter Rodriquez, Samvel Yervinyan

: - . , . . . . . Yanni Live! The Concert Event Mandalay Bay Events Center ( ) 6 2004 CD DVD 2006 . 16 125 . .

:
1. Creating
2. Standing in Motion
3. Rainmaker
4. Keys to Imagination
5. Enchantment
6. On Sacred Ground
7. Playtime
8. Until the Last Moment
9. If I Could Tell You
10. For All Seasons
11. The Storm
12. Prelude
13. Nostalgia
14. World Dance

:
Yanni Live! Backstage Pass

. :
: 9.2 (15)
IMDB: 9.7 (74)

:

: Blu-ray BD-25 Single-Layer Disc
: MPEG-4 AVC / 21499 kbps / 1080i / 29,970 fps / 16:9 / High Profile 4.1
#1: English DTS-HD MA 5.1 / 48 kHz / 5309 kbps / 24-bit (DTS Core: 5.1 / 48 kHz / 1509 kbps / 24-bit)
#2: English LPCM 2.0 / 48 kHz / 1536 kbps / 16-bit
 


Disc Title:Disc Size: 23 343 608 919 bytesProtection: AACSBD-Java: NoBDInfo: 0.5.3

Notes:

BDINFO HOME: Cinema Squid http://www.cinemasquid.com/blu-ray/tools/bdinfo

INCLUDES FORUMS REPORT FOR: AVS Forum Blu-ray Audio and Video Specifications Thread http://www.avsforum.com/avs-vb/showthread.php?t=1155731

********************PLAYLIST: 00002.MPLS********************

<--- BEGIN FORUMS PASTE --->

:

Total Video
Title Codec Length Movie Size Disc Size Bitrate Bitrate Main Audio Track Secondary Audio Track
----- ------ ------- -------------- -------------- ------- ------- ------------------ ---------------------
00002.MPLS AVC 1:21:16 18369398784 23343608919 30,14 21,50 DTS-HD Master 5.1 5309Kbps (48kHz/24-bit) LPCM 2.0 1536Kbps (48kHz/16-bit)[/spoiler]
[code]DISC INFO:

Disc Title:
Disc Size: 23343608919 bytes
Protection: AACS
BD-Java: No
BDInfo: 0.5.3

PLAYLIST REPORT:

Name: 00002.MPLS
Length: 1:21:16 (h:m:s)
Size: 18369398784 bytes
Total Bitrate: 30,14 Mbps

VIDEO:

Codec Bitrate Description
----- ------- -----------
MPEG-4 AVC Video 21499 kbps 1080i / 29,970 fps / 16:9 / High Profile 4.1

AUDIO:

Codec Language Bitrate Description
----- -------- ------- -----------
DTS-HD Master Audio English 5309 kbps 5.1 / 48 kHz / 5309 kbps / 24-bit (DTS Core: 5.1 / 48 kHz / 1509 kbps / 24-bit)
LPCM Audio English 1536 kbps 2.0 / 48 kHz / 1536 kbps / 16-bit

FILES:

Name Time In Length Size Total Bitrate
---- ------- ------ ---- -------------
00003.M2TS 0:00:00.000 1:21:16.538 18369398784 30135

CHAPTERS:

Number Time In Length Avg Video Rate Max 1-Sec Rate Max 1-Sec Time Max 5-Sec Rate Max 5-Sec Time Max 10Sec Rate Max 10Sec Time Avg Frame Size Max Frame Size Max Frame Time
------ ------- ------ -------------- -------------- -------------- -------------- -------------- -------------- -------------- -------------- -------------- --------------
1 0:00:00.000 0:01:28.154 17048 kbps 27674 kbps 00:01:15.108 21221 kbps 00:01:13.506 20292 kbps 00:01:06.299 71079 bytes 335403 bytes 00:00:38.071
2 0:01:28.154 0:01:29.756 24468 kbps 33430 kbps 00:02:37.023 27836 kbps 00:02:36.356 26534 kbps 00:02:34.988 102050 bytes 332066 bytes 00:02:29.182
3 0:02:57.911 0:06:26.619 22878 kbps 34782 kbps 00:05:48.881 29782 kbps 00:08:04.383 28388 kbps 00:06:54.213 95420 bytes 331640 bytes 00:05:59.559
4 0:09:24.530 0:05:49.248 22229 kbps 33718 kbps 00:10:59.058 28709 kbps 00:10:55.755 27080 kbps 00:09:32.171 92713 bytes 321683 bytes 00:11:47.039
5 0:15:13.779 0:04:16.956 21672 kbps 33983 kbps 00:18:36.181 29718 kbps 00:18:33.011 26965 kbps 00:18:32.244 90388 bytes 304199 bytes 00:18:36.381
6 0:19:30.736 0:08:10.489 22910 kbps 36188 kbps 00:24:05.877 30314 kbps 00:24:05.710 28539 kbps 00:24:03.475 95555 bytes 286748 bytes 00:21:03.595
7 0:27:41.226 0:08:12.859 21532 kbps 33439 kbps 00:28:36.748 28254 kbps 00:30:03.735 26232 kbps 00:30:04.202 89805 bytes 299666 bytes 00:28:08.753
8 0:35:54.085 0:06:49.542 20513 kbps 28501 kbps 00:40:21.485 24949 kbps 00:40:19.817 24224 kbps 00:39:54.992 85557 bytes 295525 bytes 00:37:14.165
9 0:42:43.627 0:04:22.595 22535 kbps 30714 kbps 00:46:46.537 27792 kbps 00:46:45.102 26078 kbps 00:46:46.003 93988 bytes 323671 bytes 00:44:59.029
10 0:47:06.223 0:09:30.836 22294 kbps 36085 kbps 00:47:38.355 31604 kbps 00:47:36.753 27722 kbps 00:50:29.092 92983 bytes 304745 bytes 00:48:54.531
11 0:56:37.060 0:06:14.407 21826 kbps 32386 kbps 01:01:13.603 28898 kbps 01:01:13.603 26276 kbps 01:01:30.586 91034 bytes 348320 bytes 01:01:15.238
12 1:02:51.467 0:05:20.486 21948 kbps 28550 kbps 01:05:38.868 26473 kbps 01:05:35.665 25461 kbps 01:05:33.029 91543 bytes 279395 bytes 01:04:01.137
13 1:08:11.954 0:05:29.162 21866 kbps 31648 kbps 01:09:08.711 26429 kbps 01:10:23.619 25296 kbps 01:12:03.519 91201 bytes 311087 bytes 01:10:07.803
14 1:13:41.116 0:04:36.976 20609 kbps 30539 kbps 01:17:30.979 26056 kbps 01:14:36.572 24922 kbps 01:16:40.395 85955 bytes 312922 bytes 01:17:00.482
15 1:18:18.093 0:02:58.444 10986 kbps 34625 kbps 01:18:50.092 29006 kbps 01:18:39.581 27365 kbps 01:18:34.710 45830 bytes 428225 bytes 01:19:13.048

STREAM DIAGNOSTICS:

File PID Type Codec Language Seconds Bitrate Bytes Packets
---- --- ---- ----- -------- -------------- -------------- ------------- -----
00003.M2TS 4113 (0x1011) 0x1B AVC 4876,472 21500 13105279050 71309896
00003.M2TS 4352 (0x1100) 0x86 DTS-HD MA eng (English) 4876,472 5309 3236347636 18348765
00003.M2TS 4353 (0x1101) 0x80 LPCM eng (English) 4876,472 1542 940204624 5851896[/code]
<pre>
<---- END FORUMS PASTE ---->

QUICK SUMMARY:

Disc Title:Disc Size: 23 343 608 919 bytesProtection: AACSBD-Java: NoPlaylist: 00002.MPLSSize: 18 369 398 784 bytesLength: 1:21:16Total Bitrate: 30,14 MbpsVideo: MPEG-4 AVC Video / 21499 kbps / 1080i / 29,970 fps / 16:9 / High Profile 4.1Audio: English / DTS-HD Master Audio / 5.1 / 48 kHz / 5309 kbps / 24-bit (DTS Core: 5.1 / 48 kHz / 1509 kbps / 24-bit)Audio: English / LPCM Audio / 2.0 / 48 kHz / 1536 kbps / 16-bit

********************PLAYLIST: 00004.MPLS********************

<--- BEGIN FORUMS PASTE --->
</pre>
[code]Total Video
Title Codec Length Movie Size Disc Size Bitrate Bitrate Main Audio Track Secondary Audio Track
----- ------ ------- -------------- -------------- ------- ------- ------------------ ---------------------
00004.MPLS AVC 0:27:26 4793008128 23343608919 23,29 18,00 DTS-HD Master 5.1 4015Kbps (48kHz/24-bit)[/code]
[code]DISC INFO:

Disc Title:
Disc Size: 23343608919 bytes
Protection: AACS
BD-Java: No
BDInfo: 0.5.3

PLAYLIST REPORT:

Name: 00004.MPLS
Length: 0:27:26 (h:m:s)
Size: 4793008128 bytes
Total Bitrate: 23,29 Mbps

VIDEO:

Codec Bitrate Description
----- ------- -----------
MPEG-4 AVC Video 17998 kbps 1080i / 29,970 fps / 16:9 / High Profile 4.1

AUDIO:

Codec Language Bitrate Description
----- -------- ------- -----------
DTS-HD Master Audio English 4015 kbps 5.1 / 48 kHz / 4015 kbps / 24-bit (DTS Core: 5.1 / 48 kHz / 1509 kbps / 24-bit)

FILES:

Name Time In Length Size Total Bitrate
---- ------- ------ ---- -------------
00006.M2TS 0:00:00.000 0:27:26.511 4793008128 23288

CHAPTERS:

Number Time In Length Avg Video Rate Max 1-Sec Rate Max 1-Sec Time Max 5-Sec Rate Max 5-Sec Time Max 10Sec Rate Max 10Sec Time Avg Frame Size Max Frame Size Max Frame Time
------ ------- ------ -------------- -------------- -------------- -------------- -------------- -------------- -------------- -------------- -------------- --------------
1 0:00:00.000 0:27:26.511 17998 kbps 30801 kbps 00:04:12.952 27685 kbps 00:03:41.187 27472 kbps 00:04:12.218 75068 bytes 441535 bytes 00:11:50.543

STREAM DIAGNOSTICS:

File PID Type Codec Language Seconds Bitrate Bytes Packets
---- --- ---- ----- -------- -------------- -------------- ------------- -----
00006.M2TS 4113 (0x1011) 0x1B AVC 1646,445 17999 3704291670 20161076
00006.M2TS 4352 (0x1100) 0x86 DTS-HD MA eng (English) 1646,445 4015 826324188 4747325[/code]
<pre>
<---- END FORUMS PASTE ---->

QUICK SUMMARY:

Disc Title:Disc Size: 23 343 608 919 bytesProtection: AACSBD-Java: NoPlaylist: 00004.MPLSSize: 4 793 008 128 bytesLength: 0:27:26Total Bitrate: 23,29 MbpsVideo: MPEG-4 AVC Video / 17998 kbps / 1080i / 29,970 fps / 16:9 / High Profile 4.1Audio: English / DTS-HD Master Audio / 5.1 / 48 kHz / 4015 kbps / 24-bit (DTS Core: 5.1 / 48 kHz / 1509 kbps / 24-bit)

********************PLAYLIST: 00000.MPLS********************

<--- BEGIN FORUMS PASTE --->
</pre>
[code]Total Video
Title Codec Length Movie Size Disc Size Bitrate Bitrate Main Audio Track Secondary Audio Track
----- ------ ------- -------------- -------------- ------- ------- ------------------ ---------------------
00000.MPLS AVC 0:00:22 29521920 23343608919 10,61 9,79 DD AC3 5.1 448Kbps[/code]
[code]DISC INFO:

Disc Title:
Disc Size: 23343608919 bytes
Protection: AACS
BD-Java: No
BDInfo: 0.5.3

PLAYLIST REPORT:

Name: 00000.MPLS
Length: 0:00:22 (h:m:s)
Size: 29521920 bytes
Total Bitrate: 10,61 Mbps

VIDEO:

Codec Bitrate Description
----- ------- -----------
MPEG-4 AVC Video 9786 kbps 1080p / 24 fps / 16:9 / High Profile 4.1

AUDIO:

Codec Language Bitrate Description
----- -------- ------- -----------
Dolby Digital Audio English 448 kbps 5.1 / 48 kHz / 448 kbps / DN -4dB

FILES:

Name Time In Length Size Total Bitrate
---- ------- ------ ---- -------------
00000.M2TS 0:00:00.000 0:00:07.000 4294656 4908
00001.M2TS 0:00:07.000 0:00:15.250 25227264 13234

CHAPTERS:

Number Time In Length Avg Video Rate Max 1-Sec Rate Max 1-Sec Time Max 5-Sec Rate Max 5-Sec Time Max 10Sec Rate Max 10Sec Time Avg Frame Size Max Frame Size Max Frame Time
------ ------- ------ -------------- -------------- -------------- -------------- -------------- -------------- -------------- -------------- -------------- --------------
1 0:00:00.000 0:00:07.000 4642 kbps 12768 kbps 00:00:00.499 4235 kbps 00:00:00.499 0 kbps 00:00:00.000 24032 bytes 190877 bytes 00:00:05.250
2 0:00:07.000 0:00:15.250 12147 kbps 30250 kbps 00:00:09.624 24278 kbps 00:00:07.999 17741 kbps 00:00:07.749 63438 bytes 260083 bytes 00:00:10.000

STREAM DIAGNOSTICS:

File PID Type Codec Language Seconds Bitrate Bytes Packets
---- --- ---- ----- -------- -------------- -------------- ------------- -----
00000.M2TS 4113 (0x1011) 0x1B AVC 6,875 4723 4059019 22121
00001.M2TS 4113 (0x1011) 0x1B AVC 15,125 12248 23157268 126059
00001.M2TS 4352 (0x1100) 0x81 AC3 eng (English) 15,125 453 856576 4780[/code]
<pre>
<---- END FORUMS PASTE ---->

QUICK SUMMARY:

Disc Title:Disc Size: 23 343 608 919 bytesProtection: AACSBD-Java: NoPlaylist: 00000.MPLSSize: 29 521 920 bytesLength: 0:00:22Total Bitrate: 10,61 MbpsVideo: MPEG-4 AVC Video / 9786 kbps / 1080p / 24 fps / 16:9 / High Profile 4.1Audio: English / Dolby Digital Audio / 5.1 / 48 kHz / 448 kbps / DN -4dB
</pre>


 ·  , , FAQ-
:  [ 28--2011 19:03 ]

  

.torrent

.torrent 112 KB


: 21.77 GB
(hash) : 5da9893eb69d0a71c4a9ceefd749dbfd175a75bb
··
...

Yanni Live! The Concert Event . !

!