Kenny G - An Evening of Rhythm & Romance torrent

, , - AdBlock. #!


37.69 GB   |    :  6    |    .torrent :  75    |   
1  
   
...
 

Galfimbul

avatar Galfimbul


Kenny G - An Evening of Rhythm & Romance

: 2008
: Smooth Jazz
: 01:37:27

Kenny G , 25 R.I.A.A., 1993 , Soul Train, , NAACP Image 1994 . , . 30 . , , , .

Tracklist

01. Home
02. Silhouette
03. Havana
04. G-Bop
05. Youre Beautiful
06. Forever In Love
07. Rhythm & Romance
08. Sax-o-loco
09. Besame Mucho
10. What A Wonderful World
11. Pick Up The Pieces
12. Cadenza
13. Songbird

Bonus Features

Introducing the show
Interview with Kenny G

Bonus Christmas tracks:
Deck The Halls / 12 Days Of Christmas
White Christmas
Santa Claus Is Coming To Town

Christmas track rehearsals:
Deck The Halls
Santa Claus Is Coming To Town
by macroMaggot
: Blu-ray
: BDMV
: MPEG-4 AVC
: DTS, AC3
: 1920x1080i, MPEG-4 AVC, 29.97 fps, 16:9, ~ 31.7 Mbps
:
DTS-HD MA 5.1, 48 kHz, 16-bit, 2287 kbps
DD 5.1, 48 kHz, 448 kbps
LPCM 2.0, 48 kHz, 16-bit, 1536 kbps
( ): English, Dutch, French, German, Italian, Portuguese, Spanish


Disc Title: KENNY_G_AN_EVENING_OF_RHYTHM_ROMANCE
Disc Size: 40465969502 bytes
Protection: AACS
BD-Java: No
BDInfo: 0.5.2

Notes:

BDINFO HOME AND REPORTS SUBMISSION:
Cinema Squid
http://www.cinemasquid.com/Tools.aspx

INCLUDES FORUMS REPORT FOR:
Unofficial Blu-ray Audio and Video Specifications Thread
http://www.avsforum.com/avs-vb/showthread.php?t=760714
http://forum.blu-ray.com/showthread.php?t=3338

********************
PLAYLIST: 00002.MPLS
********************

<--- BEGIN FORUMS PASTE --->

:

Total Video
Title Codec Length Movie Size Disc Size Bitrate Bitrate Main Audio Track Secondary Audio Track
----- ------ ------- -------------- -------------- ------- ------- ------------------ ---------------------
00002.MPLS AVC 1:37:27 27890233344 40465969502 38,16 31,73 DTS-HD Master 5.1 2287Kbps (48kHz/16-bit) DD AC3 5.1 448Kbps[/spoiler]
[code]DISC INFO:

Disc Title: KENNY_G_AN_EVENING_OF_RHYTHM_ROMANCE
Disc Size: 40465969502 bytes
Protection: AACS
BD-Java: No
BDInfo: 0.5.2

PLAYLIST REPORT:

Name: 00002.MPLS
Size: 27890233344 bytes
Length: 1:37:27 (h:m:s)
Total Bitrate: 38,16 Mbps
Description:

VIDEO:

Codec Bitrate Description
----- ------- -----------
MPEG-4 AVC Video 31730 kbps 1080i / 29,970 fps / 16:9 / High Profile 4.1

AUDIO:

Codec Language Bitrate Description
----- -------- ------- -----------
DTS-HD Master Audio English 2287 kbps 5.1 / 48 kHz / 2287 kbps / 16-bit (DTS Core: 5.1 / 48 kHz / 1509 kbps / 16-bit)
Dolby Digital Audio English 448 kbps 5.1 / 48 kHz / 448 kbps
LPCM Audio English 1536 kbps 2.0 / 48 kHz / 1536 kbps / 16-bit

FILES:

Name Time In Length Size Total Bitrate
---- ------- ------ ---- -------------
00000.M2TS 0:00:00.000 1:37:27.007 27890233344 38160

CHAPTERS:

Number Time In Length Avg Video Rate Max 1-Sec Rate Max 1-Sec Time Max 5-Sec Rate Max 5-Sec Time Max 10Sec Rate Max 10Sec Time Avg Frame Size Max Frame Size Max Frame Time
------ ------- ------ -------------- -------------- -------------- -------------- -------------- -------------- -------------- -------------- -------------- --------------
1 0:00:00.000 0:04:50.790 30692 kbps 34997 kbps 00:03:20.133 34423 kbps 00:02:54.073 33729 kbps 00:03:41.254 127998 bytes 348994 bytes 00:02:39.092
2 0:04:50.790 0:12:58.277 31365 kbps 34999 kbps 00:16:32.324 34901 kbps 00:12:06.058 34279 kbps 00:12:01.287 130820 bytes 348750 bytes 00:08:52.265
3 0:17:49.068 0:10:01.400 32533 kbps 34999 kbps 00:26:20.579 34545 kbps 00:19:42.481 33915 kbps 00:22:52.304 135688 bytes 348762 bytes 00:20:13.345
4 0:27:50.468 0:06:40.133 32662 kbps 34999 kbps 00:28:17.495 34922 kbps 00:32:23.207 34295 kbps 00:32:18.536 136228 bytes 349592 bytes 00:32:43.995
5 0:34:30.601 0:03:34.347 33021 kbps 34997 kbps 00:36:26.617 34596 kbps 00:36:11.002 34001 kbps 00:35:33.798 137726 bytes 349070 bytes 00:34:33.938
6 0:38:04.949 0:04:23.563 32881 kbps 34999 kbps 00:38:35.946 34814 kbps 00:41:49.507 34031 kbps 00:41:45.369 137141 bytes 349032 bytes 00:39:40.478
7 0:42:28.512 0:05:12.979 32889 kbps 34999 kbps 00:46:01.258 34594 kbps 00:42:30.748 33807 kbps 00:47:19.536 137173 bytes 347923 bytes 00:43:17.695
8 0:47:41.491 0:09:50.156 30771 kbps 34999 kbps 00:47:51.969 34662 kbps 00:48:39.249 34120 kbps 00:48:34.344 128339 bytes 347828 bytes 00:54:38.341
9 0:57:31.648 0:07:08.694 31630 kbps 34999 kbps 01:03:22.198 34231 kbps 01:01:09.165 33752 kbps 01:01:06.729 131923 bytes 349734 bytes 01:02:52.535
10 1:04:40.343 0:02:20.874 32721 kbps 34998 kbps 01:05:15.144 34555 kbps 01:05:38.567 33757 kbps 01:05:38.501 136473 bytes 349399 bytes 01:04:51.854
11 1:07:01.217 0:06:50.476 31237 kbps 34999 kbps 01:11:08.764 34153 kbps 01:07:49.732 33689 kbps 01:07:49.465 130283 bytes 349193 bytes 01:12:23.605
12 1:13:51.693 0:03:12.258 28730 kbps 34999 kbps 01:14:13.182 33768 kbps 01:15:44.473 33313 kbps 01:15:43.105 119826 bytes 346734 bytes 01:16:06.728
13 1:17:03.952 0:04:15.054 32540 kbps 34997 kbps 01:18:41.450 34162 kbps 01:19:06.742 33750 kbps 01:18:11.520 135719 bytes 348860 bytes 01:19:12.280
14 1:21:19.007 0:04:48.421 32677 kbps 34999 kbps 01:22:54.069 34883 kbps 01:22:51.866 33948 kbps 01:22:46.861 136291 bytes 348900 bytes 01:23:31.072
15 1:26:07.428 0:03:45.325 30211 kbps 34998 kbps 01:28:07.482 34950 kbps 01:28:04.579 34233 kbps 01:28:03.444 126007 bytes 347647 bytes 01:28:33.174
16 1:29:52.754 0:07:33.252 31577 kbps 34999 kbps 01:34:27.028 34644 kbps 01:34:26.894 34112 kbps 01:34:22.990 131702 bytes 349501 bytes 01:37:05.186
17 1:37:26.006 0:00:01.000 106 kbps 0 kbps 00:00:00.000 0 kbps 00:00:00.000 0 kbps 00:00:00.000 455 bytes 1467 bytes 01:37:26.273

STREAM DIAGNOSTICS:

File PID Type Codec Language Seconds Bitrate Bytes Packets
---- --- ---- ----- -------- -------------- -------------- ------------- -----
00000.M2TS 4113 (0x1011) 0x1B AVC 5846,874 31731 23190753709 126226205
00000.M2TS 4352 (0x1100) 0x80 LPCM eng (English) 5846,874 1542 1127303528 7016412
00000.M2TS 4353 (0x1101) 0x81 AC3 eng (English) 5846,874 448 327432448 1827190
00000.M2TS 4354 (0x1102) 0x86 DTS-HD MA eng (English) 5846,874 2287 1671409832 9995902[/code]
<---- END FORUMS PASTE ---->

QUICK SUMMARY:

Disc Title: KENNY_G_AN_EVENING_OF_RHYTHM_ROMANCE
Disc Size: 40465969502 bytes
Protection: AACS
BD-Java: No
Playlist: 00002.MPLS
Size: 27890233344 bytes
Length: 1:37:27
Total Bitrate: 38,16 Mbps
Video: MPEG-4 AVC Video / 31730 kbps / 1080i / 29,970 fps / 16:9 / High Profile 4.1
Audio: DTS-HD Master Audio / English / 2287 kbps / 5.1 / 48 kHz / 2287 kbps / 16-bit (DTS Core: 5.1 / 48 kHz / 1509 kbps / 16-bit)
Audio: Dolby Digital Audio / English / 448 kbps / 5.1 / 48 kHz / 448 kbps
Audio: LPCM Audio / English / 1536 kbps / 2.0 / 48 kHz / 1536 kbps / 16-bit

********************
PLAYLIST: 00005.MPLS
********************

<--- BEGIN FORUMS PASTE --->
[code]Total Video
Title Codec Length Movie Size Disc Size Bitrate Bitrate Main Audio Track Secondary Audio Track
----- ------ ------- -------------- -------------- ------- ------- ------------------ ---------------------
00005.MPLS AVC 0:13:11 3189559296 40465969502 32,26 28,47 LPCM 2.0 1536Kbps (48kHz/16-bit)[/code]
[code]DISC INFO:

Disc Title: KENNY_G_AN_EVENING_OF_RHYTHM_ROMANCE
Disc Size: 40465969502 bytes
Protection: AACS
BD-Java: No
BDInfo: 0.5.2

PLAYLIST REPORT:

Name: 00005.MPLS
Size: 3189559296 bytes
Length: 0:13:11 (h:m:s)
Total Bitrate: 32,26 Mbps
Description:

VIDEO:

Codec Bitrate Description
----- ------- -----------
MPEG-4 AVC Video 28466 kbps 1080i / 29,970 fps / 16:9 / High Profile 4.1

AUDIO:

Codec Language Bitrate Description
----- -------- ------- -----------
LPCM Audio English 1536 kbps 2.0 / 48 kHz / 1536 kbps / 16-bit

SUBTITLES:

Codec Language Bitrate Description
----- -------- ------- -----------
Presentation Graphics English 84,859 kbps
Presentation Graphics Dutch 72,914 kbps
Presentation Graphics French 82,460 kbps
Presentation Graphics German 80,475 kbps
Presentation Graphics Italian 79,948 kbps
Presentation Graphics Portuguese 78,559 kbps
Presentation Graphics Spanish 78,566 kbps

FILES:

Name Time In Length Size Total Bitrate
---- ------- ------ ---- -------------
00004.M2TS 0:00:00.000 0:13:11.023 3189559296 32258

CHAPTERS:

Number Time In Length Avg Video Rate Max 1-Sec Rate Max 1-Sec Time Max 5-Sec Rate Max 5-Sec Time Max 10Sec Rate Max 10Sec Time Avg Frame Size Max Frame Size Max Frame Time
------ ------- ------ -------------- -------------- -------------- -------------- -------------- -------------- -------------- -------------- -------------- --------------
1 0:00:00.000 0:00:53.086 26626 kbps 33349 kbps 00:00:45.178 31765 kbps 00:00:44.844 31194 kbps 00:00:20.220 110983 bytes 348868 bytes 00:00:17.250
2 0:00:53.086 0:00:54.053 27597 kbps 33118 kbps 00:01:15.642 31889 kbps 00:01:14.441 31368 kbps 00:01:15.642 115101 bytes 347276 bytes 00:01:29.489
3 0:01:47.140 0:01:02.462 27747 kbps 32920 kbps 00:02:25.812 31676 kbps 00:02:25.211 31216 kbps 00:02:13.766 115728 bytes 349646 bytes 00:02:10.230
4 0:02:49.602 0:01:01.728 27975 kbps 32949 kbps 00:03:30.009 31923 kbps 00:03:25.838 31536 kbps 00:03:20.433 116677 bytes 348755 bytes 00:02:57.644
5 0:03:51.331 0:00:41.274 26593 kbps 32876 kbps 00:04:17.390 31825 kbps 00:04:09.582 31457 kbps 00:04:08.381 110917 bytes 341750 bytes 00:04:16.823
6 0:04:32.605 0:00:44.711 27398 kbps 33129 kbps 00:05:05.571 31832 kbps 00:04:38.711 31415 kbps 00:04:38.111 114273 bytes 340192 bytes 00:04:43.549
7 0:05:17.317 0:00:40.206 26359 kbps 33065 kbps 00:05:43.976 31876 kbps 00:05:41.007 31392 kbps 00:05:40.373 109937 bytes 343177 bytes 00:05:27.226
8 0:05:57.523 0:03:23.002 30396 kbps 33788 kbps 00:07:28.448 32374 kbps 00:08:31.511 31933 kbps 00:08:30.243 126776 bytes 347838 bytes 00:06:31.424
9 0:09:20.526 0:00:48.982 27659 kbps 34217 kbps 00:09:26.265 32915 kbps 00:09:44.884 32158 kbps 00:09:41.280 115360 bytes 343277 bytes 00:09:26.299
10 0:10:09.508 0:01:06.266 28326 kbps 34394 kbps 00:10:38.604 33135 kbps 00:10:37.336 32370 kbps 00:10:35.601 118145 bytes 348671 bytes 00:10:53.052
11 0:11:15.775 0:01:54.247 29475 kbps 33921 kbps 00:12:41.227 32646 kbps 00:12:40.159 32101 kbps 00:12:40.626 122937 bytes 348036 bytes 00:12:03.556
12 0:13:10.022 0:00:01.000 105 kbps 0 kbps 00:00:00.000 0 kbps 00:00:00.000 0 kbps 00:00:00.000 454 bytes 1465 bytes 00:13:10.222

STREAM DIAGNOSTICS:

File PID Type Codec Language Seconds Bitrate Bytes Packets
---- --- ---- ----- -------- -------------- -------------- ------------- -----
00004.M2TS 4113 (0x1011) 0x1B AVC 790,923 28470 2814689139 15324474
00004.M2TS 4352 (0x1100) 0x80 LPCM eng (English) 790,923 1543 152509620 949230
00004.M2TS 4608 (0x1200) 0x90 PGS eng (English) 790,923 85 8390640 47279
00004.M2TS 4609 (0x1201) 0x90 PGS deu (German) 790,923 80 7957159 45020
00004.M2TS 4610 (0x1202) 0x90 PGS spa (Spanish) 790,923 79 7768443 43992
00004.M2TS 4611 (0x1203) 0x90 PGS fra (French) 790,923 82 8153491 46092
00004.M2TS 4612 (0x1204) 0x90 PGS ita (Italian) 790,923 80 7905054 44740
00004.M2TS 4613 (0x1205) 0x90 PGS nld (Dutch) 790,923 73 7209579 40965
00004.M2TS 4614 (0x1206) 0x90 PGS por (Portuguese) 790,923 79 7767746 43988[/code]
<---- END FORUMS PASTE ---->

QUICK SUMMARY:

Disc Title: KENNY_G_AN_EVENING_OF_RHYTHM_ROMANCE
Disc Size: 40465969502 bytes
Protection: AACS
BD-Java: No
Playlist: 00005.MPLS
Size: 3189559296 bytes
Length: 0:13:11
Total Bitrate: 32,26 Mbps
Video: MPEG-4 AVC Video / 28466 kbps / 1080i / 29,970 fps / 16:9 / High Profile 4.1
Audio: LPCM Audio / English / 1536 kbps / 2.0 / 48 kHz / 1536 kbps / 16-bit
Subtitle: English / 84,859 kbps
Subtitle: Dutch / 72,914 kbps
Subtitle: French / 82,460 kbps
Subtitle: German / 80,475 kbps
Subtitle: Italian / 79,948 kbps
Subtitle: Portuguese / 78,559 kbps
Subtitle: Spanish / 78,566 kbps

********************
PLAYLIST: 00003.MPLS
********************

<--- BEGIN FORUMS PASTE --->
[code]Total Video
Title Codec Length Movie Size Disc Size Bitrate Bitrate Main Audio Track Secondary Audio Track
----- ------ ------- -------------- -------------- ------- ------- ------------------ ---------------------
00003.MPLS AVC 0:12:23 3545524224 40465969502 38,17 31,80 DTS-HD Master 5.1 2228Kbps (48kHz/16-bit) DD AC3 5.1 448Kbps[/code]
[code]DISC INFO:

Disc Title: KENNY_G_AN_EVENING_OF_RHYTHM_ROMANCE
Disc Size: 40465969502 bytes
Protection: AACS
BD-Java: No
BDInfo: 0.5.2

PLAYLIST REPORT:

Name: 00003.MPLS
Size: 3545524224 bytes
Length: 0:12:23 (h:m:s)
Total Bitrate: 38,17 Mbps
Description:

VIDEO:

Codec Bitrate Description
----- ------- -----------
MPEG-4 AVC Video 31801 kbps 1080i / 29,970 fps / 16:9 / High Profile 4.1

AUDIO:

Codec Language Bitrate Description
----- -------- ------- -----------
DTS-HD Master Audio English 2228 kbps 5.1 / 48 kHz / 2228 kbps / 16-bit (DTS Core: 5.1 / 48 kHz / 1509 kbps / 16-bit)
Dolby Digital Audio English 448 kbps 5.1 / 48 kHz / 448 kbps
LPCM Audio English 1536 kbps 2.0 / 48 kHz / 1536 kbps / 16-bit

FILES:

Name Time In Length Size Total Bitrate
---- ------- ------ ---- -------------
00001.M2TS 0:00:00.000 0:12:23.042 3545524224 38173

CHAPTERS:

Number Time In Length Avg Video Rate Max 1-Sec Rate Max 1-Sec Time Max 5-Sec Rate Max 5-Sec Time Max 10Sec Rate Max 10Sec Time Avg Frame Size Max Frame Size Max Frame Time
------ ------- ------ -------------- -------------- -------------- -------------- -------------- -------------- -------------- -------------- -------------- --------------
1 0:00:00.000 0:03:24.370 32068 kbps 34997 kbps 00:00:22.055 34830 kbps 00:03:03.283 33798 kbps 00:02:58.244 133727 bytes 347750 bytes 00:01:02.195
2 0:03:24.370 0:03:09.389 31736 kbps 34999 kbps 00:03:37.517 34256 kbps 00:03:35.315 33920 kbps 00:03:30.510 132364 bytes 348338 bytes 00:04:55.228
3 0:06:33.760 0:05:48.281 31772 kbps 34998 kbps 00:07:00.386 34950 kbps 00:08:46.926 34217 kbps 00:08:46.859 132515 bytes 348223 bytes 00:09:45.685
4 0:12:22.041 0:00:01.000 97 kbps 0 kbps 00:00:00.000 0 kbps 00:00:00.000 0 kbps 00:00:00.000 418 bytes 1465 bytes 00:12:22.508

STREAM DIAGNOSTICS:

File PID Type Codec Language Seconds Bitrate Bytes Packets
---- --- ---- ----- -------- -------------- -------------- ------------- -----
00001.M2TS 4113 (0x1011) 0x1B AVC 742,909 31807 2953706558 16076866
00001.M2TS 4352 (0x1100) 0x80 LPCM eng (English) 742,909 1543 143259076 891654
00001.M2TS 4353 (0x1101) 0x81 AC3 eng (English) 742,909 448 41612032 232210
00001.M2TS 4354 (0x1102) 0x86 DTS-HD MA eng (English) 742,909 2228 206928676 1240599[/code]
<---- END FORUMS PASTE ---->

QUICK SUMMARY:

Disc Title: KENNY_G_AN_EVENING_OF_RHYTHM_ROMANCE
Disc Size: 40465969502 bytes
Protection: AACS
BD-Java: No
Playlist: 00003.MPLS
Size: 3545524224 bytes
Length: 0:12:23
Total Bitrate: 38,17 Mbps
Video: MPEG-4 AVC Video / 31801 kbps / 1080i / 29,970 fps / 16:9 / High Profile 4.1
Audio: DTS-HD Master Audio / English / 2228 kbps / 5.1 / 48 kHz / 2228 kbps / 16-bit (DTS Core: 5.1 / 48 kHz / 1509 kbps / 16-bit)
Audio: Dolby Digital Audio / English / 448 kbps / 5.1 / 48 kHz / 448 kbps
Audio: LPCM Audio / English / 1536 kbps / 2.0 / 48 kHz / 1536 kbps / 16-bit

********************
PLAYLIST: 00004.MPLS
********************

<--- BEGIN FORUMS PASTE --->
[code]Total Video
Title Codec Length Movie Size Disc Size Bitrate Bitrate Main Audio Track Secondary Audio Track
----- ------ ------- -------------- -------------- ------- ------- ------------------ ---------------------
00004.MPLS AVC 0:05:40 1383438336 40465969502 32,55 29,33 LPCM 2.0 1536Kbps (48kHz/16-bit)[/code]
[code]DISC INFO:

Disc Title: KENNY_G_AN_EVENING_OF_RHYTHM_ROMANCE
Disc Size: 40465969502 bytes
Protection: AACS
BD-Java: No
BDInfo: 0.5.2

PLAYLIST REPORT:

Name: 00004.MPLS
Size: 1383438336 bytes
Length: 0:05:40 (h:m:s)
Total Bitrate: 32,55 Mbps
Description:

VIDEO:

Codec Bitrate Description
----- ------- -----------
MPEG-4 AVC Video 29328 kbps 1080i / 29,970 fps / 16:9 / High Profile 4.1

AUDIO:

Codec Language Bitrate Description
----- -------- ------- -----------
LPCM Audio English 1536 kbps 2.0 / 48 kHz / 1536 kbps / 16-bit

FILES:

Name Time In Length Size Total Bitrate
---- ------- ------ ---- -------------
00003.M2TS 0:00:00.000 0:05:40.039 1383438336 32548

CHAPTERS:

Number Time In Length Avg Video Rate Max 1-Sec Rate Max 1-Sec Time Max 5-Sec Rate Max 5-Sec Time Max 10Sec Rate Max 10Sec Time Avg Frame Size Max Frame Size Max Frame Time
------ ------- ------ -------------- -------------- -------------- -------------- -------------- -------------- -------------- -------------- -------------- --------------
1 0:00:00.000 0:05:39.038 29414 kbps 34997 kbps 00:02:29.816 33409 kbps 00:04:58.298 32688 kbps 00:00:07.574 122670 bytes 349157 bytes 00:04:52.091
2 0:05:39.038 0:00:01.000 105 kbps 0 kbps 00:00:00.000 0 kbps 00:00:00.000 0 kbps 00:00:00.000 454 bytes 1466 bytes 00:05:39.238

STREAM DIAGNOSTICS:

File PID Type Codec Language Seconds Bitrate Bytes Packets
---- --- ---- ----- -------- -------------- -------------- ------------- -----
00003.M2TS 4113 (0x1011) 0x1B AVC 339,940 29337 1246586983 6785963
00003.M2TS 4352 (0x1100) 0x80 LPCM eng (English) 339,940 1543 65559712 408048[/code]
<---- END FORUMS PASTE ---->

QUICK SUMMARY:

Disc Title: KENNY_G_AN_EVENING_OF_RHYTHM_ROMANCE
Disc Size: 40465969502 bytes
Protection: AACS
BD-Java: No
Playlist: 00004.MPLS
Size: 1383438336 bytes
Length: 0:05:40
Total Bitrate: 32,55 Mbps
Video: MPEG-4 AVC Video / 29328 kbps / 1080i / 29,970 fps / 16:9 / High Profile 4.1
Audio: LPCM Audio / English / 1536 kbps / 2.0 / 48 kHz / 1536 kbps / 16-bit

********************
PLAYLIST: 00008.MPLS
********************

<--- BEGIN FORUMS PASTE --->
[code]Total Video
Title Codec Length Movie Size Disc Size Bitrate Bitrate Main Audio Track Secondary Audio Track
----- ------ ------- -------------- -------------- ------- ------- ------------------ ---------------------
00008.MPLS AVC 0:04:46 1196974080 40465969502 33,44 30,18 LPCM 2.0 1536Kbps (48kHz/16-bit)[/code]
[code]DISC INFO:

Disc Title: KENNY_G_AN_EVENING_OF_RHYTHM_ROMANCE
Disc Size: 40465969502 bytes
Protection: AACS
BD-Java: No
BDInfo: 0.5.2

PLAYLIST REPORT:

Name: 00008.MPLS
Size: 1196974080 bytes
Length: 0:04:46 (h:m:s)
Total Bitrate: 33,44 Mbps
Description:

VIDEO:

Codec Bitrate Description
----- ------- -----------
MPEG-4 AVC Video 30180 kbps 1080i / 29,970 fps / 16:9 / High Profile 4.1

AUDIO:

Codec Language Bitrate Description
----- -------- ------- -----------
LPCM Audio English 1536 kbps 2.0 / 48 kHz / 1536 kbps / 16-bit

FILES:

Name Time In Length Size Total Bitrate
---- ------- ------ ---- -------------
00006.M2TS 0:00:00.000 0:04:46.386 1196974080 33437

CHAPTERS:

Number Time In Length Avg Video Rate Max 1-Sec Rate Max 1-Sec Time Max 5-Sec Rate Max 5-Sec Time Max 10Sec Rate Max 10Sec Time Avg Frame Size Max Frame Size Max Frame Time
------ ------- ------ -------------- -------------- -------------- -------------- -------------- -------------- -------------- -------------- -------------- --------------
1 0:00:00.000 0:04:45.385 30285 kbps 34996 kbps 00:04:43.182 32818 kbps 00:03:54.567 32111 kbps 00:03:49.529 126299 bytes 348673 bytes 00:00:23.823
2 0:04:45.385 0:00:01.001 106 kbps 0 kbps 00:00:00.000 0 kbps 00:00:00.000 0 kbps 00:00:00.000 455 bytes 1466 bytes 00:04:45.685

STREAM DIAGNOSTICS:

File PID Type Codec Language Seconds Bitrate Bytes Packets
---- --- ---- ----- -------- -------------- -------------- ------------- -----
00006.M2TS 4113 (0x1011) 0x1B AVC 286,286 30190 1080374322 5880963
00006.M2TS 4352 (0x1100) 0x80 LPCM eng (English) 286,286 1543 55215992 343668[/code]
<---- END FORUMS PASTE ---->

QUICK SUMMARY:

Disc Title: KENNY_G_AN_EVENING_OF_RHYTHM_ROMANCE
Disc Size: 40465969502 bytes
Protection: AACS
BD-Java: No
Playlist: 00008.MPLS
Size: 1196974080 bytes
Length: 0:04:46
Total Bitrate: 33,44 Mbps
Video: MPEG-4 AVC Video / 30180 kbps / 1080i / 29,970 fps / 16:9 / High Profile 4.1
Audio: LPCM Audio / English / 1536 kbps / 2.0 / 48 kHz / 1536 kbps / 16-bit

********************
PLAYLIST: 00006.MPLS
********************

<--- BEGIN FORUMS PASTE --->
[code]Total Video
Title Codec Length Movie Size Disc Size Bitrate Bitrate Main Audio Track Secondary Audio Track
----- ------ ------- -------------- -------------- ------- ------- ------------------ ---------------------
00006.MPLS AVC 0:03:00 718178304 40465969502 31,90 28,71 LPCM 2.0 1536Kbps (48kHz/16-bit)[/code]
[code]DISC INFO:

Disc Title: KENNY_G_AN_EVENING_OF_RHYTHM_ROMANCE
Disc Size: 40465969502 bytes
Protection: AACS
BD-Java: No
BDInfo: 0.5.2

PLAYLIST REPORT:

Name: 00006.MPLS
Size: 718178304 bytes
Length: 0:03:00 (h:m:s)
Total Bitrate: 31,90 Mbps
Description:

VIDEO:

Codec Bitrate Description
----- ------- -----------
MPEG-4 AVC Video 28711 kbps 1080i / 29,970 fps / 16:9 / High Profile 4.1

AUDIO:

Codec Language Bitrate Description
----- -------- ------- -----------
LPCM Audio English 1536 kbps 2.0 / 48 kHz / 1536 kbps / 16-bit

FILES:

Name Time In Length Size Total Bitrate
---- ------- ------ ---- -------------
00002.M2TS 0:00:00.000 0:03:00.079 718178304 31905

CHAPTERS:

Number Time In Length Avg Video Rate Max 1-Sec Rate Max 1-Sec Time Max 5-Sec Rate Max 5-Sec Time Max 10Sec Rate Max 10Sec Time Avg Frame Size Max Frame Size Max Frame Time
------ ------- ------ -------------- -------------- -------------- -------------- -------------- -------------- -------------- -------------- -------------- --------------
1 0:00:00.000 0:02:59.078 28871 kbps 34978 kbps 00:00:24.958 30962 kbps 00:00:41.241 30560 kbps 00:00:41.841 120394 bytes 336553 bytes 00:00:44.277
2 0:02:59.078 0:00:01.001 105 kbps 0 kbps 00:00:00.000 0 kbps 00:00:00.000 0 kbps 00:00:00.000 454 bytes 1465 bytes 00:02:59.412

STREAM DIAGNOSTICS:

File PID Type Codec Language Seconds Bitrate Bytes Packets
---- --- ---- ----- -------- -------------- -------------- ------------- -----
00002.M2TS 4113 (0x1011) 0x1B AVC 180,013 28722 646287714 3518363
00002.M2TS 4352 (0x1100) 0x80 LPCM eng (English) 180,013 1543 34719424 216096[/code]
<---- END FORUMS PASTE ---->

QUICK SUMMARY:

Disc Title: KENNY_G_AN_EVENING_OF_RHYTHM_ROMANCE
Disc Size: 40465969502 bytes
Protection: AACS
BD-Java: No
Playlist: 00006.MPLS
Size: 718178304 bytes
Length: 0:03:00
Total Bitrate: 31,90 Mbps
Video: MPEG-4 AVC Video / 28711 kbps / 1080i / 29,970 fps / 16:9 / High Profile 4.1
Audio: LPCM Audio / English / 1536 kbps / 2.0 / 48 kHz / 1536 kbps / 16-bit

********************
PLAYLIST: 00007.MPLS
********************

<--- BEGIN FORUMS PASTE --->
[code]Total Video
Title Codec Length Movie Size Disc Size Bitrate Bitrate Main Audio Track Secondary Audio Track
----- ------ ------- -------------- -------------- ------- ------- ------------------ ---------------------
00007.MPLS AVC 0:02:42 723916800 40465969502 35,53 29,21 DTS-HD Master 5.1 2290Kbps (48kHz/16-bit) DD AC3 5.1 448Kbps[/code]
[code]DISC INFO:

Disc Title: KENNY_G_AN_EVENING_OF_RHYTHM_ROMANCE
Disc Size: 40465969502 bytes
Protection: AACS
BD-Java: No
BDInfo: 0.5.2

PLAYLIST REPORT:

Name: 00007.MPLS
Size: 723916800 bytes
Length: 0:02:42 (h:m:s)
Total Bitrate: 35,53 Mbps
Description:

VIDEO:

Codec Bitrate Description
----- ------- -----------
MPEG-4 AVC Video 29206 kbps 1080i / 29,970 fps / 16:9 / High Profile 4.1

AUDIO:

Codec Language Bitrate Description
----- -------- ------- -----------
DTS-HD Master Audio English 2290 kbps 5.1 / 48 kHz / 2290 kbps / 16-bit (DTS Core: 5.1 / 48 kHz / 1509 kbps / 16-bit)
Dolby Digital Audio English 448 kbps 5.1 / 48 kHz / 448 kbps
LPCM Audio English 1536 kbps 2.0 / 48 kHz / 1536 kbps / 16-bit

FILES:

Name Time In Length Size Total Bitrate
---- ------- ------ ---- -------------
00010.M2TS 0:00:00.000 0:02:42.996 723916800 35530

CHAPTERS:

Number Time In Length Avg Video Rate Max 1-Sec Rate Max 1-Sec Time Max 5-Sec Rate Max 5-Sec Time Max 10Sec Rate Max 10Sec Time Avg Frame Size Max Frame Size Max Frame Time
------ ------- ------ -------------- -------------- -------------- -------------- -------------- -------------- -------------- -------------- -------------- --------------
1 0:00:00.000 0:02:41.995 29386 kbps 34998 kbps 00:01:36.262 34405 kbps 00:01:33.927 33831 kbps 00:01:29.022 122539 bytes 347808 bytes 00:02:00.186
2 0:02:41.995 0:00:01.000 105 kbps 0 kbps 00:00:00.000 0 kbps 00:00:00.000 0 kbps 00:00:00.000 452 bytes 1464 bytes 00:02:42.262

STREAM DIAGNOSTICS:

File PID Type Codec Language Seconds Bitrate Bytes Packets
---- --- ---- ----- -------- -------------- -------------- ------------- -----
00010.M2TS 4113 (0x1011) 0x1B AVC 162,863 29230 595062549 3239353
00010.M2TS 4352 (0x1100) 0x80 LPCM eng (English) 162,863 1544 31426400 195600
00010.M2TS 4353 (0x1101) 0x81 AC3 eng (English) 162,863 448 9128448 50940
00010.M2TS 4354 (0x1102) 0x86 DTS-HD MA eng (English) 162,863 2292 46658628 279018[/code]
<---- END FORUMS PASTE ---->

QUICK SUMMARY:

Disc Title: KENNY_G_AN_EVENING_OF_RHYTHM_ROMANCE
Disc Size: 40465969502 bytes
Protection: AACS
BD-Java: No
Playlist: 00007.MPLS
Size: 723916800 bytes
Length: 0:02:42
Total Bitrate: 35,53 Mbps
Video: MPEG-4 AVC Video / 29206 kbps / 1080i / 29,970 fps / 16:9 / High Profile 4.1
Audio: DTS-HD Master Audio / English / 2290 kbps / 5.1 / 48 kHz / 2290 kbps / 16-bit (DTS Core: 5.1 / 48 kHz / 1509 kbps / 16-bit)
Audio: Dolby Digital Audio / English / 448 kbps / 5.1 / 48 kHz / 448 kbps
Audio: LPCM Audio / English / 1536 kbps / 2.0 / 48 kHz / 1536 kbps / 16-bit

********************
PLAYLIST: 00000.MPLS
********************

<--- BEGIN FORUMS PASTE --->
[code]Total Video
Title Codec Length Movie Size Disc Size Bitrate Bitrate Main Audio Track Secondary Audio Track
----- ------ ------- -------------- -------------- ------- ------- ------------------ ---------------------
00000.MPLS AVC 0:00:32 30418944 40465969502 7,37 6,79 DD AC3 5.1 448Kbps[/code]
[code]DISC INFO:

Disc Title: KENNY_G_AN_EVENING_OF_RHYTHM_ROMANCE
Disc Size: 40465969502 bytes
Protection: AACS
BD-Java: No
BDInfo: 0.5.2

PLAYLIST REPORT:

Name: 00000.MPLS
Size: 30418944 bytes
Length: 0:00:32 (h:m:s)
Total Bitrate: 7,37 Mbps
Description:

VIDEO:

Codec Bitrate Description
----- ------- -----------
MPEG-4 AVC Video 6785 kbps 1080i / 29,970 fps / 16:9 / High Profile 4.1

AUDIO:

Codec Language Bitrate Description
----- -------- ------- -----------
Dolby Digital Audio English 448 kbps 5.1 / 48 kHz / 448 kbps

FILES:

Name Time In Length Size Total Bitrate
---- ------- ------ ---- -------------
00005.M2TS 0:00:00.000 0:00:10.510 4841472 3685
00009.M2TS 0:00:10.510 0:00:10.510 4601856 3503
00008.M2TS 0:00:21.020 0:00:11.978 20975616 14009

CHAPTERS:

Number Time In Length Avg Video Rate Max 1-Sec Rate Max 1-Sec Time Max 5-Sec Rate Max 5-Sec Time Max 10Sec Rate Max 10Sec Time Avg Frame Size Max Frame Size Max Frame Time
------ ------- ------ -------------- -------------- -------------- -------------- -------------- -------------- -------------- -------------- -------------- --------------
1 0:00:00.000 0:00:32.999 6785 kbps 23517 kbps 00:00:27.460 20065 kbps 00:00:23.456 15361 kbps 00:00:22.956 28300 bytes 200073 bytes 00:00:18.918

STREAM DIAGNOSTICS:

File PID Type Codec Language Seconds Bitrate Bytes Packets
---- --- ---- ----- -------- -------------- -------------- ------------- -----
00005.M2TS 4113 (0x1011) 0x1B AVC 10,410 3448 4486469 24858
00009.M2TS 4113 (0x1011) 0x1B AVC 10,410 3270 4254964 23596
00008.M2TS 4113 (0x1011) 0x1B AVC 11,912 12926 19246846 105046
00008.M2TS 4352 (0x1100) 0x81 AC3 eng (English) 11,912 451 672000 3750[/code]
<---- END FORUMS PASTE ---->

QUICK SUMMARY:

Disc Title: KENNY_G_AN_EVENING_OF_RHYTHM_ROMANCE
Disc Size: 40465969502 bytes
Protection: AACS
BD-Java: No
Playlist: 00000.MPLS
Size: 30418944 bytes
Length: 0:00:32
Total Bitrate: 7,37 Mbps
Video: MPEG-4 AVC Video / 6785 kbps / 1080i / 29,970 fps / 16:9 / High Profile 4.1
Audio: Dolby Digital Audio / English / 448 kbps / 5.1 / 48 kHz / 448 kbps


 ·  , , FAQ-
:  [ 28--2011 18:57 ]

  

.torrent

.torrent 194 KB


: 37.69 GB
(hash) : 48a2f1802a9d68c506e9289d0467a1481c65f60e
··
...

Kenny G - An Evening of Rhythm & Romance . !

!