Michael Flatley Returns as Lord of the Dance torrent

, , - AdBlock. #!


28.31 GB   |    :  6 3    |    .torrent :  70    |   
1  
   
...
 

Galfimbul

avatar Galfimbul


Michael Flatley Returns as Lord of the Dance

: 2011
: entertainmentone
: Folk, Celtic, Irish Dance
: 01:35:07
: "Lord of the Dance" 3D- . " , " - .
:
01. Cry Of The Celts
02. Suil A Ruin
03. Celtic Dream
04. Warriors
05. Gypsy
06. Breakout
07. Lord Of The Dance
08. Spirit Of The New World
09. Fiery Nights
10. Lament
11. Siamsa
12. Our Wedding Day
13. Stolen Kiss
14. Nightmare
15. Victory
16. Cry Of The Celts
17. Lord Of The Dance (With Taps)
:
01. Behind the Scenes Feature
02. Deleted Scenes
: Blu-ray
: BDMV
: MPEG-4 AVC
: DTS, PCM
: 1920x1080p, MPEG-4 AVC, 23.976 fps, ~23177 kbps
1: DTS-HD MA 7.1 (48 kHz / 5745 kbps / 24-bit)
2: LPCM Audio 2.0 (48 kHz/ 1536 kbps / 16-bit)
: English, French, Spanish, Portuguese, German, Italian, Danish, Dutch, Finnish, Norwegian, Swedish
 
Disc Title:Disc Size: 30 399 425 796 bytesProtection: AACSBD-Java: NoBDInfo: 0.5.3

Notes:

BDINFO HOME: Cinema Squid http://www.cinemasquid.com/blu-ray/tools/bdinfo

INCLUDES FORUMS REPORT FOR: AVS Forum Blu-ray Audio and Video Specifications Thread http://www.avsforum.com/avs-vb/showthread.php?t=1155731

********************PLAYLIST: 00000.MPLS********************

<--- BEGIN FORUMS PASTE --->

:

Total Video
Title Codec Length Movie Size Disc Size Bitrate Bitrate Main Audio Track Secondary Audio Track
----- ------ ------- -------------- -------------- ------- ------- ------------------ ---------------------
00000.MPLS AVC 1:35:07 23103105024 30399425796 32,38 23,18 DTS-HD Master 7.1 5745Kbps (48kHz/24-bit) LPCM 2.0 1536Kbps (48kHz/16-bit)[/spoiler]
[code]DISC INFO:

Disc Title:
Disc Size: 30399425796 bytes
Protection: AACS
BD-Java: No
BDInfo: 0.5.3

PLAYLIST REPORT:

Name: 00000.MPLS
Length: 1:35:07 (h:m:s)
Size: 23103105024 bytes
Total Bitrate: 32,38 Mbps

VIDEO:

Codec Bitrate Description
----- ------- -----------
MPEG-4 AVC Video 23177 kbps 1080p / 23,976 fps / 16:9 / High Profile 4.1

AUDIO:

Codec Language Bitrate Description
----- -------- ------- -----------
DTS-HD Master Audio English 5745 kbps 7.1 / 48 kHz / 5745 kbps / 24-bit (DTS Core: 5.1 / 48 kHz / 1509 kbps / 24-bit)
LPCM Audio English 1536 kbps 2.0 / 48 kHz / 1536 kbps / 16-bit

SUBTITLES:

Codec Language Bitrate Description
----- -------- ------- -----------
Presentation Graphics English 4,603 kbps
Presentation Graphics Danish 4,340 kbps
Presentation Graphics Dutch 4,156 kbps
Presentation Graphics Finnish 3,700 kbps
Presentation Graphics French 4,569 kbps
Presentation Graphics German 4,964 kbps
Presentation Graphics Italian 4,457 kbps
Presentation Graphics Norwegian 3,850 kbps
Presentation Graphics Portuguese 4,764 kbps
Presentation Graphics Spanish 4,357 kbps
Presentation Graphics Swedish 3,897 kbps

FILES:

Name Time In Length Size Total Bitrate
---- ------- ------ ---- -------------
00001.M2TS 0:00:00.000 1:35:06.742 23103092736 32387
00008.M2TS 1:35:06.742 0:00:00.500 12288 196

CHAPTERS:

Number Time In Length Avg Video Rate Max 1-Sec Rate Max 1-Sec Time Max 5-Sec Rate Max 5-Sec Time Max 10Sec Rate Max 10Sec Time Avg Frame Size Max Frame Size Max Frame Time
------ ------- ------ -------------- -------------- -------------- -------------- -------------- -------------- -------------- -------------- -------------- --------------
1 0:00:00.000 0:08:08.529 7297 kbps 26057 kbps 00:05:30.580 24607 kbps 00:05:28.828 19757 kbps 00:05:23.865 38038 bytes 469731 bytes 00:03:05.351
2 0:08:08.529 0:08:29.175 28229 kbps 45910 kbps 00:11:58.759 42466 kbps 00:11:54.755 40789 kbps 00:11:53.003 147175 bytes 518976 bytes 00:16:04.088
3 0:16:37.705 0:05:41.340 29180 kbps 46679 kbps 00:19:50.397 42906 kbps 00:17:56.742 38559 kbps 00:17:56.492 152129 bytes 407615 bytes 00:17:57.993
4 0:22:19.046 0:03:24.078 28872 kbps 60848 kbps 00:23:58.770 40686 kbps 00:24:22.461 38080 kbps 00:24:21.793 150527 bytes 619375 bytes 00:22:31.058
5 0:25:43.124 0:02:13.091 28018 kbps 53055 kbps 00:26:09.401 39682 kbps 00:27:20.138 36955 kbps 00:27:20.138 146073 bytes 523616 bytes 00:26:49.649
6 0:27:56.216 0:04:01.074 22587 kbps 54041 kbps 00:31:12.871 42660 kbps 00:29:27.765 37325 kbps 00:31:34.309 117757 bytes 456104 bytes 00:29:30.268
7 0:31:57.290 0:07:12.014 26987 kbps 53642 kbps 00:37:40.383 43131 kbps 00:34:39.160 39500 kbps 00:34:39.160 140700 bytes 525346 bytes 00:37:40.967
8 0:39:09.305 0:02:32.152 19664 kbps 38685 kbps 00:41:11.510 37005 kbps 00:41:08.549 33762 kbps 00:41:03.460 102517 bytes 378969 bytes 00:40:12.368
9 0:41:41.457 0:05:09.142 25940 kbps 49746 kbps 00:44:56.026 41563 kbps 00:45:59.298 36914 kbps 00:43:20.347 135238 bytes 643515 bytes 00:46:43.592
10 0:46:50.599 0:04:14.295 25196 kbps 51544 kbps 00:48:06.508 43643 kbps 00:47:23.465 39218 kbps 00:48:06.508 131360 bytes 587677 bytes 00:50:10.382
11 0:51:04.895 0:09:29.151 27285 kbps 57335 kbps 00:51:05.020 43649 kbps 00:53:13.023 38153 kbps 00:59:22.100 142253 bytes 525294 bytes 00:56:08.615
12 1:00:34.047 0:03:19.407 24212 kbps 47185 kbps 01:02:30.621 43301 kbps 01:02:30.121 40127 kbps 01:02:30.121 126233 bytes 525718 bytes 01:01:30.478
13 1:03:53.454 0:02:17.136 16229 kbps 41115 kbps 01:05:00.688 39812 kbps 01:05:02.315 39693 kbps 01:05:00.146 84611 bytes 456252 bytes 01:04:55.182
14 1:06:10.591 0:10:53.819 24410 kbps 56567 kbps 01:12:44.360 43577 kbps 01:07:34.383 38437 kbps 01:15:02.247 127263 bytes 616102 bytes 01:12:45.069
15 1:17:04.411 0:03:46.392 21682 kbps 54131 kbps 01:19:30.182 40884 kbps 01:18:16.525 38007 kbps 01:18:16.566 113038 bytes 677083 bytes 01:20:31.785
16 1:20:50.804 0:03:35.506 13783 kbps 64885 kbps 01:24:12.547 26825 kbps 01:23:20.829 26272 kbps 01:23:15.824 71858 bytes 527535 bytes 01:24:12.881
17 1:24:26.311 0:07:01.254 27220 kbps 53710 kbps 01:27:26.658 43470 kbps 01:26:42.530 40348 kbps 01:26:42.530 141914 bytes 574727 bytes 01:29:17.810
18 1:31:27.565 0:03:39.677 10668 kbps 28194 kbps 01:34:00.843 23839 kbps 01:34:47.765 21322 kbps 01:34:43.886 55627 bytes 679718 bytes 01:34:04.722

STREAM DIAGNOSTICS:

File PID Type Codec Language Seconds Bitrate Bytes Packets
---- --- ---- ----- -------- -------------- -------------- ------------- -----
00001.M2TS 4113 (0x1011) 0x1B AVC 5706,659 23179 16534237439 89939930
00001.M2TS 4352 (0x1100) 0x86 DTS-HD MA eng (English) 5706,659 5746 4098818412 23157751
00001.M2TS 4353 (0x1101) 0x80 LPCM eng (English) 5706,659 1542 1100260436 6848094
00001.M2TS 4608 (0x1200) 0x90 PGS eng (English) 5706,659 5 3283504 18466
00001.M2TS 4609 (0x1201) 0x90 PGS por (Portuguese) 5706,659 5 3398384 19098
00001.M2TS 4610 (0x1202) 0x90 PGS fra (French) 5706,659 5 3259886 18337
00001.M2TS 4611 (0x1203) 0x90 PGS ita (Italian) 5706,659 4 3179689 17906
00001.M2TS 4612 (0x1204) 0x90 PGS deu (German) 5706,659 5 3541684 19870
00001.M2TS 4613 (0x1205) 0x90 PGS spa (Spanish) 5706,659 4 3108623 17519
00001.M2TS 4614 (0x1206) 0x90 PGS nld (Dutch) 5706,659 4 2964863 16735
00001.M2TS 4615 (0x1207) 0x90 PGS dan (Danish) 5706,659 4 3096172 17452
00001.M2TS 4616 (0x1208) 0x90 PGS fin (Finnish) 5706,659 4 2639946 14970
00001.M2TS 4617 (0x1209) 0x90 PGS nor (Norwegian) 5706,659 4 2746401 15545
00001.M2TS 4618 (0x120A) 0x90 PGS swe (Swedish) 5706,659 4 2780152 15734
00008.M2TS 4113 (0x1011) 0x1B AVC 0,375 126 5914 36[/code]
<pre>
<---- END FORUMS PASTE ---->

QUICK SUMMARY:

Disc Title:Disc Size: 30 399 425 796 bytesProtection: AACSBD-Java: NoPlaylist: 00000.MPLSSize: 23 103 105 024 bytesLength: 1:35:07Total Bitrate: 32,38 MbpsVideo: MPEG-4 AVC Video / 23177 kbps / 1080p / 23,976 fps / 16:9 / High Profile 4.1Audio: English / DTS-HD Master Audio / 7.1 / 48 kHz / 5745 kbps / 24-bit (DTS Core: 5.1 / 48 kHz / 1509 kbps / 24-bit)Audio: English / LPCM Audio / 2.0 / 48 kHz / 1536 kbps / 16-bitSubtitle: English / 4,603 kbpsSubtitle: Danish / 4,340 kbpsSubtitle: Dutch / 4,156 kbpsSubtitle: Finnish / 3,700 kbpsSubtitle: French / 4,569 kbpsSubtitle: German / 4,964 kbpsSubtitle: Italian / 4,457 kbpsSubtitle: Norwegian / 3,850 kbpsSubtitle: Portuguese / 4,764 kbpsSubtitle: Spanish / 4,357 kbpsSubtitle: Swedish / 3,897 kbps

********************PLAYLIST: 00002.MPLS********************

<--- BEGIN FORUMS PASTE --->
</pre>
[code]Total Video
Title Codec Length Movie Size Disc Size Bitrate Bitrate Main Audio Track Secondary Audio Track
----- ------ ------- -------------- -------------- ------- ------- ------------------ ---------------------
00002.MPLS AVC 0:19:41 4112123904 30399425796 27,85 24,06 LPCM 2.0 1536Kbps (48kHz/16-bit)[/code]
[code]DISC INFO:

Disc Title:
Disc Size: 30399425796 bytes
Protection: AACS
BD-Java: No
BDInfo: 0.5.3

PLAYLIST REPORT:

Name: 00002.MPLS
Length: 0:19:41 (h:m:s)
Size: 4112123904 bytes
Total Bitrate: 27,85 Mbps

VIDEO:

Codec Bitrate Description
----- ------- -----------
MPEG-4 AVC Video 24062 kbps 1080p / 23,976 fps / 16:9 / High Profile 4.1

AUDIO:

Codec Language Bitrate Description
----- -------- ------- -----------
LPCM Audio English 1536 kbps 2.0 / 48 kHz / 1536 kbps / 16-bit

SUBTITLES:

Codec Language Bitrate Description
----- -------- ------- -----------
Presentation Graphics English 76,143 kbps
Presentation Graphics Danish 72,470 kbps
Presentation Graphics Dutch 65,976 kbps
Presentation Graphics Finnish 57,480 kbps
Presentation Graphics French 72,486 kbps
Presentation Graphics German 80,398 kbps
Presentation Graphics Italian 72,474 kbps
Presentation Graphics Norwegian 60,822 kbps
Presentation Graphics Portuguese 75,092 kbps
Presentation Graphics Spanish 68,181 kbps
Presentation Graphics Swedish 59,281 kbps

FILES:

Name Time In Length Size Total Bitrate
---- ------- ------ ---- -------------
00002.M2TS 0:00:00.000 0:19:40.804 4112111616 27860
00008.M2TS 0:19:40.804 0:00:00.500 12288 196

CHAPTERS:

Number Time In Length Avg Video Rate Max 1-Sec Rate Max 1-Sec Time Max 5-Sec Rate Max 5-Sec Time Max 10Sec Rate Max 10Sec Time Avg Frame Size Max Frame Size Max Frame Time
------ ------- ------ -------------- -------------- -------------- -------------- -------------- -------------- -------------- -------------- -------------- --------------
1 0:00:00.000 0:08:29.300 22535 kbps 50388 kbps 00:00:15.640 42812 kbps 00:01:47.732 39071 kbps 00:05:36.169 117480 bytes 955576 bytes 00:00:13.012
2 0:08:29.300 0:11:12.004 25219 kbps 54569 kbps 00:19:17.948 43016 kbps 00:19:17.948 40510 kbps 00:11:05.665 131487 bytes 677771 bytes 00:13:58.963

STREAM DIAGNOSTICS:

File PID Type Codec Language Seconds Bitrate Bytes Packets
---- --- ---- ----- -------- -------------- -------------- ------------- -----
00002.M2TS 4113 (0x1011) 0x1B AVC 1180,721 24074 3553047546 19326568
00002.M2TS 4352 (0x1100) 0x80 LPCM eng (English) 1180,721 1543 227659204 1416966
00002.M2TS 4608 (0x1200) 0x90 PGS eng (English) 1180,721 76 11243463 63232
00002.M2TS 4609 (0x1201) 0x90 PGS por (Portuguese) 1180,721 75 11088345 62416
00002.M2TS 4610 (0x1202) 0x90 PGS fra (French) 1180,721 73 10703511 60310
00002.M2TS 4611 (0x1203) 0x90 PGS ita (Italian) 1180,721 73 10701773 60313
00002.M2TS 4612 (0x1204) 0x90 PGS deu (German) 1180,721 80 11871833 66672
00002.M2TS 4613 (0x1205) 0x90 PGS spa (Spanish) 1180,721 68 10067873 56856
00002.M2TS 4614 (0x1206) 0x90 PGS nld (Dutch) 1180,721 66 9742169 55091
00002.M2TS 4615 (0x1207) 0x90 PGS dan (Danish) 1180,721 73 10701171 60308
00002.M2TS 4616 (0x1208) 0x90 PGS fin (Finnish) 1180,721 58 8487675 48271
00002.M2TS 4617 (0x1209) 0x90 PGS nor (Norwegian) 1180,721 61 8981197 50954
00002.M2TS 4618 (0x120A) 0x90 PGS swe (Swedish) 1180,721 59 8753640 49714
00008.M2TS 4113 (0x1011) 0x1B AVC 0,375 126 5914 36[/code]
<pre>
<---- END FORUMS PASTE ---->

QUICK SUMMARY:

Disc Title:Disc Size: 30 399 425 796 bytesProtection: AACSBD-Java: NoPlaylist: 00002.MPLSSize: 4 112 123 904 bytesLength: 0:19:41Total Bitrate: 27,85 MbpsVideo: MPEG-4 AVC Video / 24062 kbps / 1080p / 23,976 fps / 16:9 / High Profile 4.1Audio: English / LPCM Audio / 2.0 / 48 kHz / 1536 kbps / 16-bitSubtitle: English / 76,143 kbpsSubtitle: Danish / 72,470 kbpsSubtitle: Dutch / 65,976 kbpsSubtitle: Finnish / 57,480 kbpsSubtitle: French / 72,486 kbpsSubtitle: German / 80,398 kbpsSubtitle: Italian / 72,474 kbpsSubtitle: Norwegian / 60,822 kbpsSubtitle: Portuguese / 75,092 kbpsSubtitle: Spanish / 68,181 kbpsSubtitle: Swedish / 59,281 kbps

********************PLAYLIST: 00006.MPLS********************

<--- BEGIN FORUMS PASTE --->
</pre>
[code]Total Video
Title Codec Length Movie Size Disc Size Bitrate Bitrate Main Audio Track Secondary Audio Track
----- ------ ------- -------------- -------------- ------- ------- ------------------ ---------------------
00006.MPLS AVC 0:04:45 1073074176 30399425796 30,04 23,87 DTS-HD Master 5.1 2850Kbps (48kHz/16-bit) LPCM 2.0 1536Kbps (48kHz/16-bit)[/code]
[code]DISC INFO:

Disc Title:
Disc Size: 30399425796 bytes
Protection: AACS
BD-Java: No
BDInfo: 0.5.3

PLAYLIST REPORT:

Name: 00006.MPLS
Length: 0:04:45 (h:m:s)
Size: 1073074176 bytes
Total Bitrate: 30,04 Mbps

VIDEO:

Codec Bitrate Description
----- ------- -----------
MPEG-4 AVC Video 23874 kbps 1080p / 23,976 fps / 16:9 / High Profile 4.1

AUDIO:

Codec Language Bitrate Description
----- -------- ------- -----------
DTS-HD Master Audio English 2850 kbps 5.1 / 48 kHz / 2850 kbps / 16-bit (DTS Core: 5.1 / 48 kHz / 1509 kbps / 16-bit)
LPCM Audio English 1536 kbps 2.0 / 48 kHz / 1536 kbps / 16-bit

FILES:

Name Time In Length Size Total Bitrate
---- ------- ------ ---- -------------
00006.M2TS 0:00:00.000 0:04:45.284 1073061888 30091
00008.M2TS 0:04:45.284 0:00:00.500 12288 196

CHAPTERS:

Number Time In Length Avg Video Rate Max 1-Sec Rate Max 1-Sec Time Max 5-Sec Rate Max 5-Sec Time Max 10Sec Rate Max 10Sec Time Avg Frame Size Max Frame Size Max Frame Time
------ ------- ------ -------------- -------------- -------------- -------------- -------------- -------------- -------------- -------------- -------------- --------------
1 0:00:00.000 0:04:45.785 23874 kbps 51058 kbps 00:03:05.143 43272 kbps 00:02:31.860 39083 kbps 00:00:53.344 124468 bytes 474310 bytes 00:04:02.033

STREAM DIAGNOSTICS:

File PID Type Codec Language Seconds Bitrate Bytes Packets
---- --- ---- ----- -------- -------------- -------------- ------------- -----
00006.M2TS 4113 (0x1011) 0x1B AVC 285,118 23930 852849070 4639079
00006.M2TS 4352 (0x1100) 0x86 DTS-HD MA eng (English) 285,118 2857 101818660 597836
00006.M2TS 4353 (0x1101) 0x80 LPCM eng (English) 285,118 1543 55002948 342342
00008.M2TS 4113 (0x1011) 0x1B AVC 0,375 126 5914 36[/code]
<pre>
<---- END FORUMS PASTE ---->

QUICK SUMMARY:

Disc Title:Disc Size: 30 399 425 796 bytesProtection: AACSBD-Java: NoPlaylist: 00006.MPLSSize: 1 073 074 176 bytesLength: 0:04:45Total Bitrate: 30,04 MbpsVideo: MPEG-4 AVC Video / 23874 kbps / 1080p / 23,976 fps / 16:9 / High Profile 4.1Audio: English / DTS-HD Master Audio / 5.1 / 48 kHz / 2850 kbps / 16-bit (DTS Core: 5.1 / 48 kHz / 1509 kbps / 16-bit)Audio: English / LPCM Audio / 2.0 / 48 kHz / 1536 kbps / 16-bit

********************PLAYLIST: 00003.MPLS********************

<--- BEGIN FORUMS PASTE --->
</pre>
[code]Total Video
Title Codec Length Movie Size Disc Size Bitrate Bitrate Main Audio Track Secondary Audio Track
----- ------ ------- -------------- -------------- ------- ------- ------------------ ---------------------
00003.MPLS AVC 0:03:52 891592704 30399425796 30,64 24,92 DTS-HD Master 5.1 2381Kbps (48kHz/16-bit) LPCM 2.0 1536Kbps (48kHz/16-bit)[/code]
[code]DISC INFO:

Disc Title:
Disc Size: 30399425796 bytes
Protection: AACS
BD-Java: No
BDInfo: 0.5.3

PLAYLIST REPORT:

Name: 00003.MPLS
Length: 0:03:52 (h:m:s)
Size: 891592704 bytes
Total Bitrate: 30,64 Mbps

VIDEO:

Codec Bitrate Description
----- ------- -----------
MPEG-4 AVC Video 24922 kbps 1080p / 23,976 fps / 16:9 / High Profile 4.1

AUDIO:

Codec Language Bitrate Description
----- -------- ------- -----------
DTS-HD Master Audio English 2381 kbps 5.1 / 48 kHz / 2381 kbps / 16-bit (DTS Core: 5.1 / 48 kHz / 1509 kbps / 16-bit)
LPCM Audio English 1536 kbps 2.0 / 48 kHz / 1536 kbps / 16-bit

FILES:

Name Time In Length Size Total Bitrate
---- ------- ------ ---- -------------
00003.M2TS 0:00:00.000 0:03:52.315 891580416 30702
00008.M2TS 0:03:52.315 0:00:00.500 12288 196

CHAPTERS:

Number Time In Length Avg Video Rate Max 1-Sec Rate Max 1-Sec Time Max 5-Sec Rate Max 5-Sec Time Max 10Sec Rate Max 10Sec Time Avg Frame Size Max Frame Size Max Frame Time
------ ------- ------ -------------- -------------- -------------- -------------- -------------- -------------- -------------- -------------- -------------- --------------
1 0:00:00.000 0:03:52.815 24922 kbps 43725 kbps 00:02:55.842 41365 kbps 00:02:52.005 40724 kbps 00:02:49.878 129930 bytes 414975 bytes 00:01:20.497

STREAM DIAGNOSTICS:

File PID Type Codec Language Seconds Bitrate Bytes Packets
---- --- ---- ----- -------- -------------- -------------- ------------- -----
00003.M2TS 4113 (0x1011) 0x1B AVC 232,190 24989 725262486 3944891
00003.M2TS 4352 (0x1100) 0x86 DTS-HD MA eng (English) 232,190 2387 69279124 412138
00003.M2TS 4353 (0x1101) 0x80 LPCM eng (English) 232,190 1543 44791296 278784
00008.M2TS 4113 (0x1011) 0x1B AVC 0,375 126 5914 36[/code]
<pre>
<---- END FORUMS PASTE ---->

QUICK SUMMARY:

Disc Title:Disc Size: 30 399 425 796 bytesProtection: AACSBD-Java: NoPlaylist: 00003.MPLSSize: 891 592 704 bytesLength: 0:03:52Total Bitrate: 30,64 MbpsVideo: MPEG-4 AVC Video / 24922 kbps / 1080p / 23,976 fps / 16:9 / High Profile 4.1Audio: English / DTS-HD Master Audio / 5.1 / 48 kHz / 2381 kbps / 16-bit (DTS Core: 5.1 / 48 kHz / 1509 kbps / 16-bit)Audio: English / LPCM Audio / 2.0 / 48 kHz / 1536 kbps / 16-bit

********************PLAYLIST: 00005.MPLS********************

<--- BEGIN FORUMS PASTE --->
</pre>
[code]Total Video
Title Codec Length Movie Size Disc Size Bitrate Bitrate Main Audio Track Secondary Audio Track
----- ------ ------- -------------- -------------- ------- ------- ------------------ ---------------------
00005.MPLS AVC 0:03:33 815824896 30399425796 30,53 24,94 DTS-HD Master 5.1 2261Kbps (48kHz/16-bit) LPCM 2.0 1536Kbps (48kHz/16-bit)[/code]
[code]DISC INFO:

Disc Title:
Disc Size: 30399425796 bytes
Protection: AACS
BD-Java: No
BDInfo: 0.5.3

PLAYLIST REPORT:

Name: 00005.MPLS
Length: 0:03:33 (h:m:s)
Size: 815824896 bytes
Total Bitrate: 30,53 Mbps

VIDEO:

Codec Bitrate Description
----- ------- -----------
MPEG-4 AVC Video 24937 kbps 1080p / 23,976 fps / 16:9 / High Profile 4.1

AUDIO:

Codec Language Bitrate Description
----- -------- ------- -----------
DTS-HD Master Audio English 2261 kbps 5.1 / 48 kHz / 2261 kbps / 16-bit (DTS Core: 5.1 / 48 kHz / 1509 kbps / 16-bit)
LPCM Audio English 1536 kbps 2.0 / 48 kHz / 1536 kbps / 16-bit

FILES:

Name Time In Length Size Total Bitrate
---- ------- ------ ---- -------------
00005.M2TS 0:00:00.000 0:03:33.254 815812608 30604
00008.M2TS 0:03:33.254 0:00:00.500 12288 196

CHAPTERS:

Number Time In Length Avg Video Rate Max 1-Sec Rate Max 1-Sec Time Max 5-Sec Rate Max 5-Sec Time Max 10Sec Rate Max 10Sec Time Avg Frame Size Max Frame Size Max Frame Time
------ ------- ------ -------------- -------------- -------------- -------------- -------------- -------------- -------------- -------------- -------------- --------------
1 0:00:00.000 0:03:33.755 24937 kbps 59121 kbps 00:00:16.599 43124 kbps 00:00:13.972 38838 kbps 00:00:13.972 130012 bytes 474122 bytes 00:00:17.016

STREAM DIAGNOSTICS:

File PID Type Codec Language Seconds Bitrate Bytes Packets
---- --- ---- ----- -------- -------------- -------------- ------------- -----
00005.M2TS 4113 (0x1011) 0x1B AVC 213,171 25005 666306466 3624184
00005.M2TS 4352 (0x1100) 0x86 DTS-HD MA eng (English) 213,171 2267 60418400 361752
00005.M2TS 4353 (0x1101) 0x80 LPCM eng (English) 213,171 1543 41115564 255906
00008.M2TS 4113 (0x1011) 0x1B AVC 0,375 126 5914 36[/code]
<pre>
<---- END FORUMS PASTE ---->

QUICK SUMMARY:

Disc Title:Disc Size: 30 399 425 796 bytesProtection: AACSBD-Java: NoPlaylist: 00005.MPLSSize: 815 824 896 bytesLength: 0:03:33Total Bitrate: 30,53 MbpsVideo: MPEG-4 AVC Video / 24937 kbps / 1080p / 23,976 fps / 16:9 / High Profile 4.1Audio: English / DTS-HD Master Audio / 5.1 / 48 kHz / 2261 kbps / 16-bit (DTS Core: 5.1 / 48 kHz / 1509 kbps / 16-bit)Audio: English / LPCM Audio / 2.0 / 48 kHz / 1536 kbps / 16-bit

********************PLAYLIST: 00004.MPLS********************

<--- BEGIN FORUMS PASTE --->
</pre>
[code]Total Video
Title Codec Length Movie Size Disc Size Bitrate Bitrate Main Audio Track Secondary Audio Track
----- ------ ------- -------------- -------------- ------- ------- ------------------ ---------------------
00004.MPLS AVC 0:01:10 263983104 30399425796 30,16 23,74 DTS-HD Master 5.1 3105Kbps (48kHz/16-bit) LPCM 2.0 1536Kbps (48kHz/16-bit)[/code]
[code]DISC INFO:

Disc Title:
Disc Size: 30399425796 bytes
Protection: AACS
BD-Java: No
BDInfo: 0.5.3

PLAYLIST REPORT:

Name: 00004.MPLS
Length: 0:01:10 (h:m:s)
Size: 263983104 bytes
Total Bitrate: 30,16 Mbps

VIDEO:

Codec Bitrate Description
----- ------- -----------
MPEG-4 AVC Video 23740 kbps 1080p / 23,976 fps / 16:9 / High Profile 4.1

AUDIO:

Codec Language Bitrate Description
----- -------- ------- -----------
DTS-HD Master Audio English 3105 kbps 5.1 / 48 kHz / 3105 kbps / 16-bit (DTS Core: 5.1 / 48 kHz / 1509 kbps / 16-bit)
LPCM Audio English 1536 kbps 2.0 / 48 kHz / 1536 kbps / 16-bit

FILES:

Name Time In Length Size Total Bitrate
---- ------- ------ ---- -------------
00004.M2TS 0:00:00.000 0:01:09.527 263970816 30373
00008.M2TS 0:01:09.527 0:00:00.500 12288 196

CHAPTERS:

Number Time In Length Avg Video Rate Max 1-Sec Rate Max 1-Sec Time Max 5-Sec Rate Max 5-Sec Time Max 10Sec Rate Max 10Sec Time Avg Frame Size Max Frame Size Max Frame Time
------ ------- ------ -------------- -------------- -------------- -------------- -------------- -------------- -------------- -------------- -------------- --------------
1 0:00:00.000 0:01:10.028 23740 kbps 50230 kbps 00:00:34.743 42378 kbps 00:00:34.659 38902 kbps 00:00:30.780 123771 bytes 570617 bytes 00:00:34.701

STREAM DIAGNOSTICS:

File PID Type Codec Language Seconds Bitrate Bytes Packets
---- --- ---- ----- -------- -------------- -------------- ------------- -----
00004.M2TS 4113 (0x1011) 0x1B AVC 69,403 23954 207804904 1130331
00004.M2TS 4352 (0x1100) 0x86 DTS-HD MA eng (English) 69,403 3133 27181400 158701
00004.M2TS 4353 (0x1101) 0x80 LPCM eng (English) 69,403 1545 13405384 83436
00008.M2TS 4113 (0x1011) 0x1B AVC 0,375 126 5914 36[/code]
<pre>
<---- END FORUMS PASTE ---->

QUICK SUMMARY:

Disc Title:Disc Size: 30 399 425 796 bytesProtection: AACSBD-Java: NoPlaylist: 00004.MPLSSize: 263 983 104 bytesLength: 0:01:10Total Bitrate: 30,16 MbpsVideo: MPEG-4 AVC Video / 23740 kbps / 1080p / 23,976 fps / 16:9 / High Profile 4.1Audio: English / DTS-HD Master Audio / 5.1 / 48 kHz / 3105 kbps / 16-bit (DTS Core: 5.1 / 48 kHz / 1509 kbps / 16-bit)Audio: English / LPCM Audio / 2.0 / 48 kHz / 1536 kbps / 16-bit


 ·  , , FAQ-
:  [ 28--2011 18:48 ]

  

.torrent

.torrent 145 KB


: 28.31 GB
(hash) : 17e6ddd53569e90c8d919d64aac148db1924b96d
··
...

, Michael Flatley Returns as Lord of the Dance

S L
, ·· Michael Flatley Returns as Lord of the Dance [2011, Folk, Celtic, Irish Dance, BDRip] sub Galfimbul 1014191325967 MB 0 0 1336334580

23:03

6--12

, (video) ·· Michael Flatley Returns as Lord of the Dance [2011, Folk, Irish Dance, BDRip, XviD] Galfimbul 15537377281.45 GB 0 0 1322682109

22:41

30--11

Michael Flatley Returns as Lord of the Dance . !

!