Скачать порно через торрент Hanging Out болтаясь UnionPeer.org бесплатно онлайн HD качество

Скачать новое порно 2015, 2014 новинки через торрент UnionPeer.org

Порно торрент бесплатно ЮнионПир.орг

Если у вас наблюдаются проблемы со скриншотами, переходом по ссылками, скачиванием торрентов - проблемы в блокировщике рекламы AdBlock. #хорошегоДня!


Статистика раздачи
Размер:  879 MB   |    Зарегистрирован:  5 месяцев 17 дней   |    .torrent скачан:  44 раза   |   
Раздают:  1  
   
Загрузка...
 
Автор Сообщение

Galfimbul

avatar Galfimbul


Hanging Out / болтаясь

Год производства: 2006 г.
Страна: Brazil
Жанр: all sex
Продолжительность: 01:14:51

Режиссер: Colossal
Студия: Colossal

В ролях: Adriano Rocco
Alex Junior
Beto Sodre
Eric Ferenni
Fabricio (br1)
Igor Sales
Luan (br)
Marcelo Moura
Rocco Brazill
Samuel Rodrigues (sap)

Описание: 1. Luan (br) OgrAbt, Samuel Rodrigues (sap) OgrAbt
On a white bed, in front of a brown tiled wall, Luan (tattoo on right shoulder, another on left side) sucks Samuel Rodrigues (sap) (colored tattoo on right shoulder, hair on forehead); they flipflop.

2. Igor Sales OgrAbt
On a white bed with a low yellow headboard, in front of a beige wall with a large framed picture, Igor Sales (necklace, spiky hair) gets rimmed, sucked, and topped by an unidentified young brown model; then Igor sucks, rims, and tops him.

3. Marcelo Moura OgAb, Alex Junior OrAt
On the grass with a thatched hut in the background, Marcelo Moura (yellow t-shirt) sucks Alex Junior (tattoo on right deltoid) and an unidentified blond model with a small beard; they top him.
found in compilation The Invitation: Penis Party

4. Fabricio (br1) OgAb, Rocco Brazill OrAt
Outdoors on the grass, Fabricio (br) sucks Rocco Brazill (hairy torso, tattoo around right biceps with a pair of wings above, earring); Rocco tops Fabricio on the ground and over a table.

Format : AVI
Format/Info : Audio Video Interleave
File size : 879 MiB
Duration : 1h 14mn
Overall bit rate : 1 641 Kbps

Video
ID : 0
Format : MPEG-4 Visual
Format profile : Simple@L3
Format settings, BVOP : Yes
Format settings, QPel : No
Format settings, GMC : No warppoints
Format settings, Matrix : Default (H.263)
Codec ID : XVID
Codec ID/Hint : XviD
Duration : 1h 14mn
Bit rate : 1 500 Kbps
Width : 640 pixels
Height : 480 pixels
Display aspect ratio : 4:3
Frame rate : 29.970 fps
Color space : YUV
Chroma subsampling : 4:2:0
Bit depth : 8 bits
Scan type : Progressive
Compression mode : Lossy
Bits/(Pixel*Frame) : 0.163
Stream size : 803 MiB (91%)

Audio
ID : 1
Format : MPEG Audio
Format version : Version 1
Format profile : Layer 3
Mode : Joint stereo
Mode extension : MS Stereo
Codec ID : 55
Codec ID/Hint : MP3
Duration : 1h 14mn
Bit rate mode : Constant
Bit rate : 128 Kbps
Channel(s) : 2 channels
Sampling rate : 44.1 KHz
Compression mode : Lossy
Stream size : 68.4 MiB (8%)
Alignment : Aligned on interleaves
Interleave, duration : 26 ms (0.78 video frame)
Interleave, preload duration : 104 ms
Writing library : LAME3.97

Доп. информация: http://www.gayeroticvideoindex.com/V/9/36819.html

Качество видео: DVDRip
Формат видео: AVI
Видео: MPEG-4 Visual
Аудио: MPEG Audio


Трекер:  [ 04-Мар-2017 15:30 ]

  

Скачать .torrent

Размер .torrent файла 69 KB


Размер: 879 MB
Хэш (hash) релиза: e8d73e46fbac4a2f457c85f517fdb296cf81a0a7

Еще никто не оставлял запись к записи скачать торрент Hanging Out болтаясь . Будь первым!

!Обратная связь