Скачать порно через торрент Raw and Ready Сырье и Готовый UnionPeer.org бесплатно онлайн HD качество

Скачать новое порно 2015, 2014 новинки через торрент UnionPeer.org

Порно торрент бесплатно ЮнионПир.орг

Если у вас наблюдаются проблемы со скриншотами, переходом по ссылками, скачиванием торрентов - проблемы в блокировщике рекламы AdBlock. #хорошегоДня!


Статистика раздачи
Размер:  1.38 GB   |    Зарегистрирован:  5 месяцев 14 дней   |    .torrent скачан:  29 раз   |   
Раздают:  1  
   
Загрузка...
 
Автор Сообщение

Galfimbul

avatar Galfimbul


Raw and Ready / Сырье и Готовый

Год производства: 2007 г.
Жанр: all sex
Продолжительность: 01:51:36

Режиссер: Santino Ferrari
Студия: Brazil

В ролях: Axel (br)
Elias (br1)
Franco (br)
Jason (br)
Marc (br)
Marcos (br)
Thobias (br)
Yair (br)

Описание: General
Complete name : F:\next door\Raw and Ready (Brazil).avi
Format : AVI
Format/Info : Audio Video Interleave
File size : 1.38 GiB
Duration : 1h 51mn
Overall bit rate : 1 770 Kbps
Writing library : VirtualDub build 28292/release

Video
ID : 0
Format : MPEG-4 Visual
Format settings, BVOP : 1
Format settings, QPel : No
Format settings, GMC : No warppoints
Format settings, Matrix : Default (H.263)
Muxing mode : Packed bitstream
Codec ID : DX50
Codec ID/Hint : DivX 5
Duration : 1h 51mn
Bit rate : 1 598 Kbps
Width : 720 pixels
Height : 480 pixels
Display aspect ratio : 3:2
Frame rate : 29.970 fps
Standard : NTSC
Color space : YUV
Chroma subsampling : 4:2:0
Bit depth : 8 bits
Scan type : Progressive
Compression mode : Lossy
Bits/(Pixel*Frame) : 0.154
Stream size : 1.25 GiB (90%)
Writing library : DivX 6.8.0 (UTC 2007-12-04)

Audio
ID : 1
Format : AC-3
Format/Info : Audio Coding 3
Mode extension : CM (complete main)
Codec ID : 2000
Duration : 1h 51mn
Bit rate mode : Constant
Bit rate : 160 Kbps
Channel(s) : 2 channels
Channel positions : Front: L R
Sampling rate : 48.0 KHz
Bit depth : 16 bits
Compression mode : Lossy
Stream size : 128 MiB (9%)
Alignment : Aligned on interleaves
Interleave, duration : 33 ms (1.00 video frame)
Interleave, preload duration : 512 ms

Доп. информация: http://www.gayeroticvideoindex.com/V/0/36560.html

Качество видео: DVDRip
Формат видео: AVI
Видео: 1 770 Kbps
Аудио: Audio Coding 3


Трекер:  [ 04-Мар-2017 15:30 ]

  

Скачать .torrent

Размер .torrent файла 55 KB


Размер: 1.38 GB
Хэш (hash) релиза: 3e0277d82583d4a866bfb4f4425dd409b3a73e8e

Еще никто не оставлял запись к записи скачать торрент Raw and Ready Сырье и Готовый . Будь первым!

!Обратная связь