Скачать через торрент Одиночка Серии: 1-16 из 16 Фильм бесплатно в хорошем качестве torrent

Скачивайте на UnionPeer.org фильмы через торрент без регистрации. Новинки кино в хорошем качестве через торрент. На UnionPeer.org можно скачать через торрент фильмы 2014 и 2015 годов. Самые новые фильмы.

Скачать торрент Одиночка Серии: 1-16 из 16 бесплатно через .torrent фильм мультфильм сериал

Статистика раздачи
Размер:  8.64 GB   |    Зарегистрирован:  2 месяца 24 дня   |    .torrent скачан:  192 раза   |   
Раздают:  1  
   
 
Автор Сообщение

Galfimbul

avatar Galfimbul


Одиночка
Год выпуска: 2016
Производство: Украина, «Киевтелефильм»
Жанр: Детектив
Продолжительность: 00:45:34
Субтитры: нет
Режиссёр: Виктор Конисевич
В ролях: Алексей Горбунов, Ванда Конисевич, Ирина Ефремова (II), Андрей Стоянов, Алиса Тункевич, Николай Боклан, Мария Климова, Андрей Исаенко, Сергей Кучера, Станислав Щёкин, Олег Школьник, Владимир Левицкий, Павел Шмарёв, Михаил Шамигулов, Борис Абрамов, Алексей Агопьян, Михаил Аугуст, Иванна Бжезинская, Александр Бондарь, Вячеслав Василюк, Алексей Власенко, Даниил Вулицкий, Владислава Гаврилюк, Борис Георгиевский, Владимир Гладкий, Юрий Гребельник, Юлия Григорьева (III), Иван Губанов, Сергей Деньга, Олег Коркушко, Дерик Дитади, Олег Драч, Елена Дудич, Александр Жуковин, Алексей Зорин, Игорь Зоров, Ярослав Игнатенко, Валентин Кисельков, Филипп Козлов (II), Станислав Колокольников, Виктор Конисевич, Анастасия Конисевич, Андрей Корженевский, Галина Корнеева, Тимофей Криницкий, Михаил Круль, Александр Крыжановский, Андрей Лелюх, Алиса Лукшина, Рустам Мазничка, Олег Москаленко, Максим Никитин, Юрий Одинокий,
Описание: Глеб с первого взгляда кажется жестким и принципиальным, его характер сложный и не снисходителен. Он привык все проблемы решать самостоятельно, держать свое слово и быть уважаемым среди знакомых и коллег. Единственное утешение и луч света в жизни Глеба Мечникова - это его дочь Кристина. Мужчина вырастил ее сам, без жены и какой-либо поддержки со стороны родных.
/ Сэмпл
Релиз-группа:
Качество: WEBRip
Формат: AVI
Видео кодек: XviD
Аудио кодек: AC3
Видео: 720x400 (16:9), 25.000 fps, XviD build 73, 1490 Kbps, 0.20 bits/pixel
Аудио: 48 kHz, AC3 Dolby Digital, 2 ch, 192 Kbps
Реклама: Нет
General
Complete name : Downloads\Одиночка.2016.WEB-DLRip.Files-x\01.Одиночка.2016.WEB-DLRip.Files-x.avi
Format : AVI
Format/Info : Audio Video Interleave
File size : 552 MiB
Duration : 45mn 34s
Overall bit rate : 1 692 Kbps
Writing application : VirtualDubMod 1.5.10.3 | www.virtualdub-fr.org || (build 2550/release)
Writing library : VirtualDubMod build 2550/release
Video #0
ID : 0
Format : MPEG-4 Visual
Format profile : Advanced Simple@L5
Format settings, BVOP : 1
Format settings, QPel : No
Format settings, GMC : No warppoints
Format settings, Matrix : Custom
Codec ID : XVID
Codec ID/Hint : XviD
Duration : 45mn 34s
Bit rate : 1 490 Kbps
Width : 720 pixels
Height : 400 pixels
Display aspect ratio : 16:9
Frame rate : 25.000 fps
Color space : YUV
Chroma subsampling : 4:2:0
Bit depth : 8 bits
Scan type : Progressive
Compression mode : Lossy
Bits/(Pixel*Frame) : 0.207
Stream size : 486 MiB (88%)
Writing library : XviD 73
Audio #1
ID : 1
Format : AC-3
Format/Info : Audio Coding 3
Mode extension : CM (complete main)
Format settings, Endianness : Big
Codec ID : 2000
Duration : 45mn 34s
Bit rate mode : Constant
Bit rate : 192 Kbps
Channel(s) : 2 channels
Channel positions : Front: L R
Sampling rate : 48.0 KHz
Bit depth : 16 bits
Compression mode : Lossy
Stream size : 62.6 MiB (11%)
Alignment : Split accross interleaves
Interleave, duration : 40 ms (1.00 video frame)
Interleave, preload duration : 500 ms


Трекер:  [ 04-Мар-2017 03:30 ]

  

Скачать .torrent

Размер .torrent файла 45 KB


Размер: 8.64 GB
Хэш (hash) релиза: 5b500cd6a10307ccec0fa402a7d0b6372a9c5880
Подписка на обновления:

Еще никто не оставлял запись к записи скачать торрент Одиночка Серии: 1-16 из 16 . Будь первым!

!Обратная связь