Скачать через торрент Побитые Псы Under the Dog бесплатно Аниме Все серии на русском torrent

Если у вас наблюдаются проблемы со скриншотами, переходом по ссылками, скачиванием торрентов - проблемы в блокировщике рекламы AdBlock. #хорошегоДня!


Статистика раздачи
Размер:  3.35 GB   |    Зарегистрирован:  6 месяцев   |    .torrent скачан:  22 раза   |   
Раздают:  1  
   
Загрузка...
 
Автор Сообщение

Galfimbul

avatar Galfimbul


Побитые Псы
アンダー・ザ・ドッグ
Страна: Япония
Год выпуска: 01.08.2016
Жанр: Экшен, приключения, фантастика
Тип: OVA
Продолжительность: 1 эп. 39 мин
Студия:
Режиссер: Андо Масахиро
Автор оригинала: Исии Дзиро

Описание: Новый Токио, 2025 год. После теракта на Олимпийских играх 2020 было решено создать отряд специального назначения под эгидой ООН для противодействия различным формам экстремизма. В ряды организации вошли подростки, каждый наделенный особой способностью. Среди лучших из лучших оказалась Антея Калленберг, профессионал своего дела, получившая высокую репутацию у многих военных организаций. И вот, усилиями наших новых защитников вроде бы наступило спокойствие, и жизнь общества налаживается, но все ли так гладко на самом деле? Она должна выяснить это, даже если придется пойти против всего мира.
World-Art
Качество: BDRip [UCCUSS]

Тип релиза: Без хардсаба

Формат видео: MKV
<div style="margin-left: 2em" class="post-ul">Видео: MPEG4 (10 bits), 1920x1080, 23.976 fps, 11826 Kbps
Аудио: японский, FLAC, 2 канала, 48 КГц, 693 Кбит/сек
Субтитры:
<div style="margin-left: 2em" class="post-ul">(Russian): ASS, внешние AleX_MytH
Субтитры: YakuSub Studio
Оформление: Helge
Редактор: Red-blue_heart
Переводчик: SeshaRim
ОбщееУникальный идентификатор : 173989190974434456294727270770946020509 (0x82E5196B0D5E685BB1263D93A19B149D)Полное имя : D:\[UCCUSS] UNDER THE DOG (BD 1920x1080p AVC FLAC)\[UCCUSS] UNDER THE DOG (BD 1920x1080p AVC FLAC).mkvФормат : MatroskaВерсия формата : Version 4 / Version 2Размер файла : 3,35 ГбайтПродолжительность : 38 м. 19 с.Режим общего битрейта : ПеременныйОбщий поток : 12,5 Мбит/секДата кодирования : UTC 2017-03-02 08:22:04Программа кодирования : mkvmerge v9.6.0 ('Slave To Your Mind') 32bitБиблиотека кодирования : libebml v1.3.4 + libmatroska v1.4.5

ВидеоИдентификатор : 1Формат : AVCФормат/Информация : Advanced Video CodecПрофиль формата : High@L4.1Параметр CABAC формата : ДаПараметр ReFrames формата : 4 кадраИдентификатор кодека : V_MPEG4/ISO/AVCПродолжительность : 38 м. 19 с.Битрейт : 11,8 Мбит/секШирина : 1920 пикселейВысота : 1080 пикселейСоотношение сторон : 16:9Режим частоты кадров : ПостоянныйЧастота кадров : 23,976 (24000/1001) кадра/секЦветовое пространство : YUVСубдискретизация насыщенности : 4:2:0Битовая глубина : 8 битТип развёртки : ПрогрессивнаяБит/(Пиксели*Кадры) : 0.238Размер потока : 3,17 Гбайт (94%)Библиотека кодирования : x264 core 148 r2744 b97ae06Настройки программы : cabac=1 / ref=4 / deblock=1:-1:-1 / analyse=0x3:0x133 / me=umh / subme=9 / psy=1 / psy_rd=0.75:0.00 / mixed_ref=1 / me_range=32 / chroma_me=1 / trellis=2 / 8x8dct=1 / cqm=0 / deadzone=21,11 / fast_pskip=1 / chroma_qp_offset=-4 / threads=4 / lookahead_threads=1 / sliced_threads=0 / nr=0 / decimate=0 / interlaced=0 / bluray_compat=0 / constrained_intra=0 / bframes=5 / b_pyramid=2 / b_adapt=1 / b_bias=0 / direct=2 / weightb=1 / open_gop=0 / weightp=2 / keyint=230 / keyint_min=23 / scenecut=40 / intra_refresh=0 / rc_lookahead=50 / rc=crf / mbtree=1 / crf=15.5 / qcomp=0.70 / qpmin=10 / qpmax=42 / qpstep=4 / vbv_maxrate=50000 / vbv_bufsize=50000 / crf_max=0.0 / nal_hrd=none / filler=0 / ip_ratio=1.40 / aq=1:0.90Default : ДаForced : Нет

АудиоИдентификатор : 2Формат : FLACФормат/Информация : Free Lossless Audio CodecИдентификатор кодека : A_FLACПродолжительность : 38 м. 19 с.Вид битрейта : ПеременныйБитрейт : 693 Кбит/секКаналы : 2 каналаРасположение каналов : Front: L RЧастота : 48,0 КГцЧастота кадров : 11,719 кадров/сек (4096 spf)Битовая глубина : 16 битРазмер потока : 190 Мбайт (6%)Заголовок : Main 2.0Библиотека кодирования : libFLAC 1.3.1 (UTC 2014-11-25)Язык : JapaneseDefault : ДаForced : Да
Отличия:

...5266856 - Gin-KC BDRip 720
...5365763 - pcab1829 BDRip 1080
</div>
</div>

Трекер:  [ 02-Мар-2017 11:00 ]

  

Скачать .torrent

Размер .torrent файла 17 KB


Размер: 3.35 GB
Хэш (hash) релиза: 6e97aa184abd44e3f2e4ca35090d177e4c5890a4
Подписка на обновления:

Торренты, похожие на Побитые Псы Under the Dog скачать торрент

Форум Название Автор Размер S L Добавлен
Аниме | HD Rips ·· Побитые псы / Under the Dog (Андо Масахиро) [OVA] [1 из 1] [Без хардсаба] [RUS(ext), JAP+SUB] [2016, фантастика, триллер, BDRip] [1080p] Galfimbul 21468165152 GB 0 0 1496795620

03:33

7-Июн-17

Аниме | HD Rips ·· Побитые Псы / Under the Dog [OVA] [1 из 1] [Без хардсаба] [RUS(ext), JAP, SUB] [2016, Приключения, Фантастика, Экшен, Триллер, BDRip] [720p] Galfimbul 842392990803 MB 0 0 1488439642

10:27

2-Мар-17

Аниме | HD Rips ·· Побитые Псы / Under the Dog (Андо Масахиро) [OVA] [1 из 1] [Без хардсаба] [JAP+SUB] [2016, экшен, приключения, фантастика BDRip] [720p] Galfimbul 799086587762 MB 0 0 1488374206

16:16

1-Мар-17

Аниме | HD Rips ·· Побитые Псы / Under the Dog [OVA] [1 из 1] [Без хардсаба] [RUS(int), JAP+SUB] [2016 г., Приключения, Экшен, Триллер, BDRip] [720p] Galfimbul 639528056610 MB 0 0 1470937009

20:36

11-Авг-16

Аниме | HD Rips ·· Побитые Псы / Under the Dog [OVA] [1 из 1] [Без хардсаба] [JAP, SUB] [2016 г., Приключения, Экшен, Триллер, HDTVRip] [1080p] Galfimbul 756234997721 MB 0 0 1470110277

06:57

2-Авг-16

Еще никто не оставлял запись к записи скачать торрент Побитые Псы Under the Dog . Будь первым!

!Обратная связь