Скачать порно через торрент Amazing Asses 12 Удивительные Задницы UnionPeer.org бесплатно онлайн HD качество

Скачать новое порно 2015, 2014 новинки через торрент UnionPeer.org

Порно торрент бесплатно ЮнионПир.орг

Если у вас наблюдаются проблемы со скриншотами, переходом по ссылками, скачиванием торрентов - проблемы в блокировщике рекламы AdBlock. #хорошегоДня!


Статистика раздачи
Размер:  2.34 GB   |    Зарегистрирован:  7 месяцев   |    .torrent скачан:  88 раз   |   
Раздают:  2  
   
Загрузка...
 
Автор Сообщение

Galfimbul

avatar Galfimbul


Amazing Asses 12 / Удивительные Задницы Год производства: 2013 г.
Страна: USA
Жанр: Big Tits, Curvy, Knee Socks, Big Ass, Brunette, Vibrators
Продолжительность: 01:45:28
Язык: Английский

Студия: Immoral Productions

В ролях: Kiera King .Misty Stone. Sarah Blake. Aleska Nicole.Porno Dan.

Описание: Immoral Productions and Porno Dan are back with another blazing hot edition of Amazing Asses! Get your tape measure out, because these girls have some amazing hips and asses! You’ll be enthralled with the quality of the ladies in this installment of Amazing Asses! Check out babes like Misty Stone, Kiera King, Sarah Blake, and Aleksa Nicole.
Immoral Productions brings you the 12th volume of the Immoral Productions series dedicated to models with beautiful backsides. Cover model Misty Stone has a round 43-inch bubble butt that jiggles and shakes when she bounces on the big dong of Ralph Long. Kiera King has 41 inches of goodness that looks great when it''s bent over and plowed by "Porno" Dan. Aleska Nicole has a 43-inch super shapely and sweet booty that Travis Varjak plunders. He feasts on it until he has to tap out and call in Dan to have him glaze it for him. Sarah Blake has a 4O-inch ass that looks delicious when Dan does her doggy

Разбит на эпизоды: Да
Доп. информация: http://www.adultdvdempire.com/1681284/amazing-asses-vol-12-porn-movies.html
Качество видео: WEBRip
Формат видео: MP4
Видео: MPEG4 Video (H264) 1280x720 30fps [VideoHandler - MPEG4 Video (H264)]
Аудио: AAC 48000Hz stereo [SoundHandler - MPEG-4 Audio]
Video
ID : 1
Format : AVC
Format/Info : Advanced Video Codec
Format profile : Main@L3.1
Format settings, CABAC : Yes
Format settings, ReFrames : 3 frames
Codec ID : avc1
Codec ID/Info : Advanced Video Coding
Duration : 1h 45mn
Bit rate : 3 045 Kbps
Width : 1 280 pixels
Height : 720 pixels
Display aspect ratio : 16:9
Frame rate mode : Constant
Frame rate : 30.000 fps
Color space : YUV
Chroma subsampling : 4:2:0
Bit depth : 8 bits
Scan type : Progressive
Bits/(Pixel*Frame) : 0.110
Stream size : 2.24 GiB (96%)
Writing library : Zencoder Video Encoding System

Audio
ID : 2
Format : AAC
Format/Info : Advanced Audio Codec
Format profile : LC
Codec ID : 40
Duration : 1h 45mn
Bit rate mode : Variable
Bit rate : 128 Kbps
Channel(s) : 2 channels
Channel positions : Front: L R
Sampling rate : 48.0 KHz
Compression mode : Lossy
Stream size : 96.6 MiB (4%)


Трекер:  [ 28-Фев-2017 19:00 ]

  

Скачать .torrent

Размер .torrent файла 12 KB


Размер: 2.34 GB
Хэш (hash) релиза: a1dbbb7aadbc133782d640c432a616f32e78c439

Еще никто не оставлял запись к записи скачать торрент Amazing Asses 12 Удивительные Задницы . Будь первым!

!Обратная связь