Скачать через торрент Драконий Зубной Ryuu no Haisha бесплатно Аниме Все серии на русском torrent

Если у вас наблюдаются проблемы со скриншотами, переходом по ссылками, скачиванием торрентов - проблемы в блокировщике рекламы AdBlock. #хорошегоДня!


Статистика раздачи
Размер:  979 MB   |    Зарегистрирован:  7 месяцев   |    .torrent скачан:  31 раз   |   
Раздают:  1  
   
Загрузка...
 
Автор Сообщение

Galfimbul

avatar Galfimbul



Драконий Зубной / Ryuu no Haisha / The Dragon Dentist / 龍の歯医者
Год выпуска: 2017 г.
Страна: Япония
Жанр: Приключения, Фэнтези
Тип: Special
Продолжительность: 2 эп. по 46 мин.
Режиссер: Цурумаки Кадзуя
Студия: Studio Khara
Перевод:

Русские субтитры от Alex_Drake & lukorepka
Описание:
Действие происходит в Стране Драконов. Ноноко - заступает на службу как дантист, чей долг - оберегать зубы главного защитника страны, дракона, от бактерий. В то время, как бои с соседней страной происходят все чаще и все более ожесточенно, Ноноко обнаруживает лежащего без сознания на зубе дракона вражеского солдата. Выяснилось, что парень, который представился как Бэлл, воскрес в этом месте - сверхъестественное явление, которое по легендам является предзнаменованием великой катастрофы. Множество новых сражений заставляют Ноноко и Бэлла принять свою судьбу. Новые эпические приключения обещают держать в напряжении своего зрителя.
Информационные ссылки: World Art || AniDB || MAL
Качество: HDTVRip | Рип: [Leopard-Raws]
Тип релиза: Без хардсаба
Формат видео: MP4
Наличие линковки: Нет
Видео: AVC, 1280x720, 2781 kbps, 23.976 fps [8 bit]
Аудио:
1. Japanese AAC, 48.0 KHz, 192 kbps, 2 ch;
Субтитры:

Russian: ASS, внешние;
General Format : MPEG-4 Format profile : Base Media Codec ID : isom File size : 979 MiB Duration : 45mn 59s Overall bit rate mode : Variable Overall bit rate : 2 976 Kbps Encoded date : UTC 2017-02-19 20:50:54 Tagged date : UTC 2017-02-19 20:50:54 Video #1 ID : 1 Format : AVC Format/Info : Advanced Video Codec Format profile : High@L4.1 Format settings, CABAC : Yes Format settings, ReFrames : 4 frames Codec ID : avc1 Codec ID/Info : Advanced Video Coding Duration : 45mn 59s Bit rate : 2 781 Kbps Maximum bit rate : 28.9 Mbps Width : 1 280 pixels Height : 720 pixels Display aspect ratio : 16:9 Frame rate mode : Constant Frame rate : 23.976 fps Color space : YUV Chroma subsampling : 4:2:0 Bit depth : 8 bits Scan type : Progressive Bits/(Pixel*Frame) : 0.126 Stream size : 915 MiB (93%) Title : 264:fps=23.976@GPAC0.5.2-DEV-rev376-g5eeb74d-master Writing library : x264 core 129 r2245+729M 1a52e03 Encoding settings : cabac=1 / ref=4 / deblock=1:1:-1 / analyse=0x3:0x113 / me=umh / subme=9 / psy=1 / fade_compensate=0.00 / psy_rd=1.00:0.00 / mixed_ref=1 / me_range=24 / chroma_me=1 / trellis=2 / 8x8dct=1 / cqm=0 / deadzone=21,11 / fast_pskip=1 / chroma_qp_offset=-2 / threads=8 / lookahead_threads=1 / sliced_threads=0 / nr=0 / decimate=1 / interlaced=0 / bluray_compat=0 / constrained_intra=0 / fgo=0 / bframes=9 / b_pyramid=2 / b_adapt=2 / b_bias=0 / direct=1 / weightb=1 / open_gop=0 / weightp=2 / keyint=240 / keyint_min=24 / scenecut=40 / intra_refresh=0 / rc=crf / mbtree=0 / crf=17.5 / qcomp=0.72 / qpmin=0 / qpmax=69 / qpstep=4 / ip_ratio=1.40 / pb_ratio=1.30 / aq=1:0.85 Encoded date : UTC 2017-02-19 20:50:54 Tagged date : UTC 2017-02-19 20:51:23 Color primaries : BT.709 Transfer characteristics : BT.709 Matrix coefficients : BT.709 Audio #2 ID : 2 Format : AAC Format/Info : Advanced Audio Codec Format profile : LC Codec ID : 40 Duration : 45mn 59s Bit rate mode : Variable Bit rate : 192 Kbps Maximum bit rate : 225 Kbps Channel(s) : 2 channels Channel positions : Front: L R Sampling rate : 48.0 KHz Compression mode : Lossy Stream size : 63.0 MiB (6%) Language : Japanese Encoded date : UTC 2017-02-19 13:37:00 Tagged date : UTC 2017-02-19 20:51:23

01. Тэнгумуси / Tengumushi


Трекер:  [ 26-Фев-2017 05:30 ]

  

Скачать .torrent

Размер .torrent файла 20 KB


Размер: 979 MB
Хэш (hash) релиза: b430d1829aea1154b8706608ce09c2784bccc064
Подписка на обновления:

Еще никто не оставлял запись к записи скачать торрент Драконий Зубной Ryuu no Haisha . Будь первым!

!Обратная связь