Скачать через торрент Барышня и хулиган Серии: 1-4 из 4 Фильм бесплатно в хорошем качестве torrent

Скачивайте на UnionPeer.org фильмы через торрент без регистрации. Новинки кино в хорошем качестве через торрент. На UnionPeer.org можно скачать через торрент фильмы 2014 и 2015 годов. Самые новые фильмы.

Скачать торрент Барышня и хулиган Серии: 1-4 из 4 бесплатно через .torrent фильм мультфильм сериал

Статистика раздачи
Размер:  2.16 GB   |    Зарегистрирован:  3 месяца 2 дня   |    .torrent скачан:  147 раз   |   
Раздают:  1  
   
 
Автор Сообщение

Galfimbul

avatar Galfimbul


Барышня и хулиган
Год выпуска: 2017
Производство: ООО "Студия ПРО100 Фильм"
Жанр: криминальный фильм, экранизаци
Продолжительность: 00:44:00
Субтитры: нет

Режиссёр: Олег Штром

В ролях: Анастасия Савосина, Дмитрий Исаев, Наталия Быстрова, Александр Пашков, Максим Митяшин, Максим Мальцев, Юлия Майборода

Описание: Сёстры Ирина и Анастасия похожи внешне, но по характеру совершенно разные. Школьная учительница Ира – скромница, в то время как младшая Настя, певица в ночном клубе, – полная её противоположность. Однажды Настя просит сестру выручить, на время заменив её на работе. Безотказная Ира соглашается, но когда приезжает в дом сестры, обнаруживает окровавленный труп неизвестного мужчины. В этот момент её и застает бывший муж Насти Михаил Шальнов. В убитом он узнает владельца клуба, где поёт его бывшая жена. Только что выпущенный из СИЗО, где Михаил сидел по подозрению в убийстве, он понимает, что новые проблемы ему не нужны, и решает спрятать тело в багажнике машины. Ни Ирина, ни Михаил и подумать не могли, что по роковой случайности машину с "сюрпризом" угонят...
/ Сэмпл
Релиз от:
Качество: WEBRip
Формат: AVI
Видео кодек: XviD
Аудио кодек: AC3
Видео: 720x400 (16:9), 25.000 fps, XviD build 73, 1551 Kbps, 0.21 bits/pixel
Аудио: 48 kHz, AC3 Dolby Digital, 2 ch, 192 Kbps
Реклама: Нет
General
Complete name : C:\Users\Andreas\Downloads\Barychnia.i.xuligan.2016.WEB-DLRip.Files-x\01.Barychnia.i.xuligan.2016.WEB-DLRip.Files-x.avi
Format : AVI
Format/Info : Audio Video Interleave
File size : 553 MiB
Duration : 44mn 4s
Overall bit rate : 1 753 Kbps
Writing application : VirtualDubMod 1.5.10.3 | www.virtualdub-fr.org || (build 2550/release)
Writing library : VirtualDubMod build 2550/release
Video #0
ID : 0
Format : MPEG-4 Visual
Format profile : Advanced Simple@L5
Format settings, BVOP : 1
Format settings, QPel : No
Format settings, GMC : No warppoints
Format settings, Matrix : Custom
Codec ID : XVID
Codec ID/Hint : XviD
Duration : 44mn 4s
Bit rate : 1 551 Kbps
Width : 720 pixels
Height : 400 pixels
Display aspect ratio : 16:9
Frame rate : 25.000 fps
Color space : YUV
Chroma subsampling : 4:2:0
Bit depth : 8 bits
Scan type : Progressive
Compression mode : Lossy
Bits/(Pixel*Frame) : 0.215
Stream size : 489 MiB (88%)
Writing library : XviD 73
Audio #1
ID : 1
Format : AC-3
Format/Info : Audio Coding 3
Mode extension : CM (complete main)
Format settings, Endianness : Big
Codec ID : 2000
Duration : 44mn 4s
Bit rate mode : Constant
Bit rate : 192 Kbps
Channel(s) : 2 channels
Channel positions : Front: L R
Sampling rate : 48.0 KHz
Bit depth : 16 bits
Compression mode : Lossy
Stream size : 60.5 MiB (11%)
Alignment : Split accross interleaves
Interleave, duration : 40 ms (1.00 video frame)
Interleave, preload duration : 500 ms


Трекер:  [ 26-Фев-2017 02:00 ]

  

Скачать .torrent

Размер .torrent файла 11 KB


Размер: 2.16 GB
Хэш (hash) релиза: 3fe0d68771bd6a097627dacc39dc6541d11040fa
Подписка на обновления:

Торренты, похожие на Барышня и хулиган Серии: 1-4 из 4 скачать торрент

Форум Название Автор Размер S L Добавлен
Российские сериалы ·· Барышня и хулиган / Серии: 1-4 из 4 (Олег Штром) [2017,детектив,экранизация, SATRip-AVC] Galfimbul 21839465442.03 GB 2 0 1488049617

22:06

25-Фев-17

Еще никто не оставлял запись к записи скачать торрент Барышня и хулиган Серии: 1-4 из 4 . Будь первым!

!Обратная связь