Скачать порно через торрент Sextortion Сексторион UnionPeer.org бесплатно онлайн HD качество

Скачать новое порно 2015, 2014 новинки через торрент UnionPeer.org

Порно торрент бесплатно ЮнионПир.орг

Если у вас наблюдаются проблемы со скриншотами, переходом по ссылками, скачиванием торрентов - проблемы в блокировщике рекламы AdBlock. #хорошегоДня!


Статистика раздачи
Размер:  1.54 GB   |    Зарегистрирован:  5 месяцев 23 дня   |    .torrent скачан:  22 раза   |   
Раздают:  1  
   
Загрузка...
 
Автор Сообщение

Galfimbul

avatar Galfimbul



Sextortion
Сексторион

Год производства:
1999 г.
Страна:
US
Жанр:
Oral, Anal Sex, Bareback,
Продолжительность:
01:22:31
Студия:
Catalina Video
Режиссер:
Brad Austin
В ролях:
Andrew Lennox, Blake Harper, Dave Casino, David Bronson, Jason Branch, Nick Young, Paul Dawson, Rafe Ford
Описание:
JASON BRANCH is busy disposing of his slutty past, tossing a box of toys and a photo of an encounter with trick DAVID BROSON. Jason flashes back to the taste of David''s throbbing dick down his eager throat and snapping the photo in the heat of the moment.
Качество видео:
DVDRip
Формат видео:
MP4
Видео:
AVC, 704x480, 29.000 fps, 2 500 kb/s
Аудио:
AAC, 44.1 kHz, Lossy, 185 kb/s
Format : MPEG-4
Format profile : Base Media / Version 2
Codec ID : mp42 (mp42/isom/avc1)
File size : 1.54 GiB
Duration : 1 h 22 min
Overall bit rate mode : Variable
Overall bit rate : 2 677 kb/s
Encoded date : UTC 2017-01-23 17:40:49
Tagged date : UTC 2017-01-23 18:34:29
Writing application : HandBrake 0.9.8 2012071700

Video
ID : 1
Format : AVC
Format/Info : Advanced Video Codec
Format profile : High@L3
Format settings, CABAC : Yes
Format settings, ReFrames : 4 frames
Codec ID : avc1
Codec ID/Info : Advanced Video Coding
Duration : 1 h 22 min
Bit rate : 2 500 kb/s
Width : 704 pixels
Height : 480 pixels
Display aspect ratio : 4:3
Frame rate mode : Variable
Frame rate : 29.970 (29970/1000) FPS
Minimum frame rate : 9.990 FPS
Maximum frame rate : 29.970 FPS
Standard : NTSC
Color space : YUV
Chroma subsampling : 4:2:0
Bit depth : 8 bits
Scan type : Progressive
Bits/(Pixel*Frame) : 0.247
Stream size : 1.45 GiB (94%)
Writing library : x264 core 120
Encoding settings : cabac=1 / ref=3 / deblock=1:0:0 / analyse=0x3:0x113 / me=hex / subme=7 / psy=1 / psy_rd=1.00:0.00 / mixed_ref=1 / me_range=16 / chroma_me=1 / trellis=1 / 8x8dct=1 / cqm=0 / deadzone=21,11 / fast_pskip=1 / chroma_qp_offset=-2 / threads=6 / sliced_threads=0 / nr=0 / decimate=1 / interlaced=0 / bluray_compat=0 / constrained_intra=0 / bframes=3 / b_pyramid=2 / b_adapt=1 / b_bias=0 / direct=1 / weightb=1 / open_gop=0 / weightp=2 / keyint=300 / keyint_min=30 / scenecut=40 / intra_refresh=0 / rc_lookahead=40 / rc=abr / mbtree=1 / bitrate=2500 / ratetol=1.0 / qcomp=0.60 / qpmin=3 / qpmax=69 / qpstep=4 / ip_ratio=1.40 / aq=1:1.00
Encoded date : UTC 2017-01-23 17:40:49
Tagged date : UTC 2017-01-23 18:34:29
Color range : Limited
Color primaries : BT.601 NTSC
Transfer characteristics : BT.709
Matrix coefficients : BT.601
Menus : 3

Audio
ID : 2
Format : AAC
Format/Info : Advanced Audio Codec
Format profile : LC
Codec ID : 40
Duration : 1 h 22 min
Bit rate mode : Variable
Bit rate : 160 kb/s
Maximum bit rate : 185 kb/s
Channel(s) : 2 channels
Channel positions : Front: L R
Sampling rate : 48.0 kHz
Frame rate : 46.875 FPS (1024 spf)
Compression mode : Lossy
Stream size : 94.4 MiB (6%)
Title : Stereo
Encoded date : UTC 2017-01-23 17:40:49
Tagged date : UTC 2017-01-23 18:34:28

Menu
ID : 3
Codec ID : text
Duration : 1 h 22 min
Encoded date : UTC 2017-01-23 17:40:49
Tagged date : UTC 2017-01-23 18:34:29
Menu For : 1
00:00:00.000 : Chapter 1
00:02:05.692 : Chapter 2
00:15:23.989 : Chapter 3
00:19:34.239 : Chapter 4
00:36:30.755 : Chapter 5
00:38:43.387 : Chapter 6
00:51:14.638 : Chapter 7
00:52:57.240 : Chapter 8
01:06:01.524 : Chapter 9
01:07:25.107 : Chapter 10
01:19:50.852 : Chapter 11
Bit rate mode : VBR


Трекер:  [ 26-Фев-2017 00:30 ]

  

Скачать .torrent

Размер .torrent файла 16 KB


Размер: 1.54 GB
Хэш (hash) релиза: 23c4f021fcf306af35904e9f075189e0e4b7a600

Еще никто не оставлял запись к записи скачать торрент Sextortion Сексторион . Будь первым!

!Обратная связь