Скачать порно через торрент Chain of Command Цепь командования UnionPeer.org бесплатно онлайн HD качество

Скачать новое порно 2015, 2014 новинки через торрент UnionPeer.org

Порно торрент бесплатно ЮнионПир.орг

Если у вас наблюдаются проблемы со скриншотами, переходом по ссылками, скачиванием торрентов - проблемы в блокировщике рекламы AdBlock. #хорошегоДня!


Статистика раздачи
Размер:  1.63 GB   |    Зарегистрирован:  7 месяцев   |    .torrent скачан:  28 раз   |   
Раздают:  1  
   
Загрузка...
 
Автор Сообщение

Galfimbul

avatar Galfimbul



Chain of Command
Цепь командования

Год производства:
2005 г.
Страна:
US
Жанр:
Oral, Anal Sex, Bareback, Interracial
Продолжительность:
01:45:46
Студия:
Unzipped Video
Режиссер:
Doug Jeffries
В ролях:
Brad Benton, Duke Hunter, Jay Varella, Marcos Pirelli, Markiz Baldwin, Nick Capra, Owen Hawk, Rod Barry, Tim Rusty, Tom Slade
Описание:
The continuing search for a few good men. Bad boy Owen Hawk''s just salivating at the prospect of getting into the military. His mental picture of the military life is one filled with hot studs who just love to screw around with each other''s rock hard bodies and dicks! Hawk gets a personal demonstration of following orders from his drill sergeant -- who does just that! The sergeant''s versatile too! All turns into a nasty balls-to-the-wall orgy and a spectacular gangbanging of Tim RustyÐlast in line his instructor!
Качество видео:
DVDRip
Формат видео:
MP4
Видео:
mp42, 720x544, 29.000 fps, 2 063 kb/s
Аудио:
AAC, 44.1 kHz, Lossy, 187 kb/s
Format : MPEG-4
Format profile : Base Media / Version 2
Codec ID : mp42 (mp42)
File size : 1.63 GiB
Duration : 1 h 45 min
Overall bit rate mode : Variable
Overall bit rate : 2 200 kb/s
Codirector : codirector
Production studio : studio
ContentType : Unknown Type
Encoded date : UTC 2016-10-20 11:43:57
Tagged date : UTC 2016-10-20 11:44:28

Video
ID : 1
Format : AVC
Format/Info : Advanced Video Codec
Format profile : Baseline@L3
Format settings, CABAC : No
Format settings, ReFrames : 1 frame
Format settings, GOP : M=1, N=25
Muxing mode : Container profile=Baseline@4.1
Codec ID : avc1
Codec ID/Info : Advanced Video Coding
Duration : 1 h 45 min
Bit rate : 2 063 kb/s
Width : 720 pixels
Height : 544 pixels
Display aspect ratio : 4:3
Frame rate mode : Constant
Frame rate : 29.970 (30000/1001) FPS
Original frame rate : 29.000 FPS
Color space : YUV
Chroma subsampling : 4:2:0
Bit depth : 8 bits
Scan type : Progressive
Bits/(Pixel*Frame) : 0.176
Stream size : 1.52 GiB (94%)
Language : English
Menus : 3

Audio
ID : 2
Format : AAC
Format/Info : Advanced Audio Codec
Format profile : LC
Codec ID : 40
Duration : 1 h 45 min
Source duration : 1 h 45 min
Bit rate mode : Variable
Bit rate : 128 kb/s
Maximum bit rate : 187 kb/s
Channel(s) : 2 channels
Channel positions : Front: L R
Sampling rate : 44.1 kHz
Frame rate : 43.066 FPS (1024 spf)
Compression mode : Lossy
Stream size : 96.8 MiB (6%)
Source stream size : 96.8 MiB (6%)
Title : Stereo
Language : English
Default : Yes
Alternate group : 1

Menu
ID : 3
Codec ID : text
Duration : 1 h 41 min
Encoded date : UTC 2016-10-20 11:44:28
Tagged date : UTC 2016-10-20 11:44:28
Menu For : 1
00:00:00.000 : Chapter 1
00:03:40.000 : Chapter 2
00:10:19.000 : Chapter 3
00:15:35.000 : Chapter 4
00:21:20.000 : Chapter 5
00:26:23.000 : Chapter 6
00:32:07.000 : Chapter 7
00:33:26.000 : Chapter 8
00:38:46.000 : Chapter 9
00:45:12.000 : Chapter 10
00:51:10.000 : Chapter 11
00:56:33.000 : Chapter 12
00:58:14.000 : Chapter 13
01:04:14.000 : Chapter 14
01:10:26.000 : Chapter 15
01:17:28.000 : Chapter 16
01:19:20.000 : Chapter 17
01:25:35.000 : Chapter 18
01:31:46.000 : Chapter 19
01:36:49.000 : Chapter 20
01:41:19.000 : Chapter 21
Bit rate mode : VBR


Трекер:  [ 25-Фев-2017 06:30 ]

  

Скачать .torrent

Размер .torrent файла 16 KB


Размер: 1.63 GB
Хэш (hash) релиза: abbac880098a10ece098f7714aa5217d95cfcb9e

Еще никто не оставлял запись к записи скачать торрент Chain of Command Цепь командования . Будь первым!

!Обратная связь