Скачать порно через торрент Excess Эксцесс UnionPeer.org бесплатно онлайн HD качество

Скачать новое порно 2015, 2014 новинки через торрент UnionPeer.org

Порно торрент бесплатно ЮнионПир.орг

Если у вас наблюдаются проблемы со скриншотами, переходом по ссылками, скачиванием торрентов - проблемы в блокировщике рекламы AdBlock. #хорошегоДня!


Статистика раздачи
Размер:  1002 MB   |    Зарегистрирован:  7 месяцев   |    .torrent скачан:  34 раза   |   
Раздают:  1   Качают:  1  
   
Загрузка...
 
Автор Сообщение

Galfimbul

avatar Galfimbul



Excess
Эксцесс

Год производства:
1989 г.
Страна:
US
Жанр:
Oral, Anal Sex, Bareback
Продолжительность:
01:25:17
Студия:
Vidco Video
Режиссер:
Jeff Lawrence
В ролях:
Brandon Wells (80s), Butch Taylor, Matthew Windsor, Neil Thomas, Rich Burns, Robert French, Timothy Balfore
Описание:
Matthew Windsor is having one of those days when every time he turns around there''s more sex coming right at him.!
Качество видео:
VHSRip
Формат видео:
AVI
Видео:
MPEG-4 Visual, 640x480, 29.970 fps, 1 501 kb/s
Аудио:
MPEG Audio, 44.1 kHz, Lossy, 128 kbps
Format : AVI
Format/Info : Audio Video Interleave
File size : 1 002 MiB
Duration : 1 h 25 min
Overall bit rate : 1 642 kb/s

Video
ID : 0
Format : MPEG-4 Visual
Format profile : Simple@L3
Format settings, BVOP : Yes
Format settings, QPel : No
Format settings, GMC : No warppoints
Format settings, Matrix : Default (H.263)
Codec ID : XVID
Codec ID/Hint : XviD
Duration : 1 h 25 min
Bit rate : 1 501 kb/s
Width : 640 pixels
Height : 480 pixels
Display aspect ratio : 4:3
Frame rate : 29.970 (30000/1001) FPS
Color space : YUV
Chroma subsampling : 4:2:0
Bit depth : 8 bits
Scan type : Progressive
Compression mode : Lossy
Bits/(Pixel*Frame) : 0.163
Stream size : 916 MiB (91%)

Audio
ID : 1
Format : MPEG Audio
Format version : Version 1
Format profile : Layer 3
Mode : Joint stereo
Mode extension : MS Stereo
Codec ID : 55
Codec ID/Hint : MP3
Duration : 1 h 25 min
Bit rate mode : Constant
Bit rate : 128 kb/s
Channel(s) : 2 channels
Sampling rate : 44.1 kHz
Compression mode : Lossy
Stream size : 77.9 MiB (8%)
Alignment : Aligned on interleaves
Interleave, duration : 26 ms (0.78 video frame)
Interleave, preload duratio : 104 ms
Writing library : LAME3.97


Трекер:  [ 24-Фев-2017 22:30 ]

  

Скачать .torrent

Размер .torrent файла 20 KB


Размер: 1002 MB
Хэш (hash) релиза: 47017647c09855b4abc206cf2d41c538cb044998

Еще никто не оставлял запись к записи скачать торрент Excess Эксцесс . Будь первым!

!Обратная связь