Giovanni no Shima torrent

, , - AdBlock. #!


6.32 GB   |    :  6    |    .torrent :  19    |   
1  
   
...
 

Galfimbul

avatar Galfimbul


/ Giovanni no Shima / Giovanni's Island
ジョバンニの島
:

: 22.02.2014

: ,

/: Movie, 100 .

:

:

:
:
, . , , , . ...
: World Art || AniDB || MAL
:

, , , Timecraft & Hariton Harko
: AleX_MytH; : Hariton Harko

, , , bills_spirit

, (/), , , ,

:

, , , FanDub
: FassaD, Aleister, Garalas, Elegra, Kinko

, (./.), , Cuba77 & Shina (AniDub)

, , ,
: Gwean, Maslinka, ,
: silphur8

: BDRip | : | : MKV

: 1920x1080, 23.976 f/s, H.264 (Hi10P), 6 372 Kb/s

JAP: 48.0 KHz, FLAC, 2 channels, 1 276 Kb/s
RUS 1, 2: 48.0 KHz, AAC, 2 channels, 193 Kb/s
UKR: 48.0 KHz, AC3, 6 channels, 640 Kb/s
General
Unique ID : 217073333566797233165528806328453256644 (0xA34ECDA6AB670A05A7E16806C28355C4)
Complete name : ***\ [Giovanni no Shima]\[silphur8] Giovanni's Island (Hi10P, 1080p).mkv
Format : Matroska
Format version : Version 4 / Version 2
File size : 5.60 GiB
Duration : 1 h 41 min
Overall bit rate mode : Variable
Overall bit rate : 7 890 kb/s
Encoded date : UTC 2017-02-24 17:02:56
Writing application : mkvmerge v7.1.0 ('Good Love') 64bit built on Jul 27 2014 13:06:55
Writing library : libebml v1.3.0 + libmatroska v1.4.1
Attachments : msyh.ttf / Arno Pro.ttf / ArnoPro-Smbd.otf / Averia-Bold.ttf / BASKVILL.TTF / GenBkBasR.ttf / handsean.ttf / times.ttf

Video
ID : 1
Format : AVC
Format/Info : Advanced Video Codec
Format profile : High 10@L5.1
Format settings, CABAC : Yes
Format settings, ReFrames : 16 frames
Codec ID : V_MPEG4/ISO/AVC
Duration : 1 h 41 min
Bit rate : 6 372 kb/s
Width : 1 920 pixels
Height : 1 080 pixels
Display aspect ratio : 16:9
Frame rate mode : Constant
Frame rate : 23.976 (24000/1001) FPS
Color space : YUV
Chroma subsampling : 4:2:0
Bit depth : 10 bits
Scan type : Progressive
Bits/(Pixel*Frame) : 0.128
Stream size : 4.52 GiB (81%)
Writing library : x264 core 140 r2377+40 929f149 tMod [10-bit@all X86]
Encoding settings : cabac=1 / ref=16 / deblock=1:0:0 / analyse=0x3:0x133 / me=umh / subme=10 / psy=1 / fade_compensate=0.00 / psy_rd=1.00:0.00 / mixed_ref=1 / me_range=24 / chroma_me=1 / trellis=2 / 8x8dct=1 / cqm=0 / deadzone=21,11 / fast_pskip=1 / chroma_qp_offset=-2 / threads=12 / lookahead_threads=2 / sliced_threads=0 / nr=0 / decimate=1 / interlaced=0 / bluray_compat=0 / constrained_intra=0 / fgo=0 / bframes=8 / b_pyramid=2 / b_adapt=2 / b_bias=0 / direct=3 / weightb=1 / open_gop=0 / weightp=2 / keyint=250 / keyint_min=23 / scenecut=40 / intra_refresh=0 / rc_lookahead=60 / rc=crf / mbtree=1 / crf=16.0000 / qcomp=0.60 / qpmin=0:0:0 / qpmax=81:81:81 / qpstep=4 / ip_ratio=1.40 / aq=1:1.00 / aq-sensitivity=10.00 / aq-factor=1.00:1.00:1.00 / aq2=0 / aq3=0
Language : English
Default : Yes
Forced : No

Audio
ID : 2
Format : FLAC
Format/Info : Free Lossless Audio Codec
Codec ID : A_FLAC
Duration : 1 h 41 min
Bit rate mode : Variable
Bit rate : 1 276 kb/s
Channel(s) : 2 channels
Channel positions : Front: L R
Sampling rate : 48.0 kHz
Frame rate : 11.719 FPS (4096 spf)
Bit depth : 24 bits
Stream size : 927 MiB (16%)
Writing library : libFLAC 1.2.1 (UTC 2007-09-17)
Default : Yes
Forced : No

Text #1
ID : 3
Format : PGS
Muxing mode : zlib
Codec ID : S_HDMV/PGS
Codec ID/Info : Picture based subtitle format used on BDs/HD-DVDs
Duration : 1 h 33 min
Bit rate : 112 kb/s
Count of elements : 7064
Stream size : 75.4 MiB (1%)
Title : BD English subtitles
Language : English
Default : No
Forced : No

Text #2
ID : 4
Format : ASS
Codec ID : S_TEXT/ASS
Codec ID/Info : Advanced Sub Station Alpha
Duration : 1 h 41 min
Bit rate : 133 b/s
Count of elements : 1423
Compression mode : Lossless
Stream size : 99.2 KiB (0%)
Title : Mabors Sub Chinese Simplified subtitles
Language : Chinese
Default : No
Forced : No

Text #3
ID : 5
Format : ASS
Codec ID : S_TEXT/ASS
Codec ID/Info : Advanced Sub Station Alpha
Duration : 1 h 41 min
Bit rate : 133 b/s
Count of elements : 1423
Compression mode : Lossless
Stream size : 99.2 KiB (0%)
Title : Mabors Sub Chinese Traditional subtitles
Language : Chinese
Default : No
Forced : No

Text #4
ID : 6
Format : PGS
Muxing mode : zlib
Codec ID : S_HDMV/PGS
Codec ID/Info : Picture based subtitle format used on BDs/HD-DVDs
Duration : 1 h 39 min
Bit rate : 104 kb/s
Count of elements : 7203
Stream size : 74.0 MiB (1%)
Title : BD Japanese subtitles
Language : Japanese
Default : No
Forced : No

Text #5
ID : 7
Format : ASS
Codec ID : S_TEXT/ASS
Codec ID/Info : Advanced Sub Station Alpha
Duration : 1 h 33 min
Bit rate : 169 b/s
Count of elements : 1157
Compression mode : Lossless
Stream size : 116 KiB (0%)
Title : Owari Subs
Language : Italian
Default : No
Forced : No

Menu
00:00:00.000 : en:00:00:00.000
00:02:10.547 : en:00:02:10.547
00:05:01.301 : en:00:05:01.301
00:06:37.814 : en:00:06:37.814
00:09:33.406 : en:00:09:33.406
00:15:16.916 : en:00:15:16.916
00:19:18.282 : en:00:19:18.282
00:25:11.510 : en:00:25:11.510
00:33:02.981 : en:00:33:02.981
00:37:01.344 : en:00:37:01.344
00:40:05.153 : en:00:40:05.153
00:44:31.669 : en:00:44:31.669
00:52:20.471 : en:00:52:20.471
00:57:43.460 : en:00:57:43.460
01:03:34.185 : en:01:03:34.185
01:10:05.118 : en:01:10:05.118
01:17:20.052 : en:01:17:20.052
01:21:35.432 : en:01:21:35.432
01:29:30.365 : en:01:29:30.365
01:34:31.666 : en:01:34:31.666
- 1080p.
- ().


 ·  , , FAQ-
:  [ 24--2017 20:30 ]

  

.torrent

.torrent 32 KB


: 6.32 GB
(hash) : 41a7255f634bdc2ff26d4c8188856d17d8f483b6
:
··
...

Giovanni no Shima . !

!