Скачать через торрент Пять минут тишины Серии: 1-10 из 10 Фильм бесплатно в хорошем качестве torrent

Скачивайте на UnionPeer.org фильмы через торрент без регистрации. Новинки кино в хорошем качестве через торрент. На UnionPeer.org можно скачать через торрент фильмы 2014 и 2015 годов. Самые новые фильмы.

Скачать торрент Пять минут тишины Серии: 1-10 из 10 бесплатно через .torrent фильм мультфильм сериал

Если у вас наблюдаются проблемы со скриншотами, переходом по ссылками, скачиванием торрентов - проблемы в блокировщике рекламы AdBlock. #хорошегоДня!


Статистика раздачи
Размер:  12.22 GB   |    Зарегистрирован:  6 месяцев   |    .torrent скачан:  173 раза   |   
Раздают:  1  
   
Загрузка...
 
Автор Сообщение

Galfimbul

avatar Galfimbul


Пять минут тишины
Год выпуска: 2017
Производство: НТВ, ПРИОР Продакшн при участии Студия Грин Фильм
Жанр: Детектив, приключения
Продолжительность: 00:47:00
Субтитры: нет

Режиссёр: Алексей Праздников

В ролях: Игорь Лифанов, Роман Курцын, Анна Пескова, Олег Андреев, Константин Воробьёв, Анастасия Стежко, Артур Ваха, Екатерина Головина (III), Александр Конев, Александр Иванов (XIV), Владислав Демьяненко

Описание: Выпускник Академии МЧС Александр Грек рассчитывал пройти стажировку в штабе. Но неожиданно его отправляют в Карелию в горноспасательный отряд под руководством опытного и жесткого командира Гиреева. Команда Гиреева известна среди коллег не только своим профессионализмом, но и умением найти в каждой операции по спасению нестандартный выход из ситуации, порой граничащий с безумием. Новые товарищи — спасатель Коля Петров, кинолог по прозвищу Старик, врач Таня — все время подшучивают над Александром. Молодой человек тем временем надеется на содействие своего влиятельного дяди, который может устроить ему перевод в столицу. А пока он вместе с командой отправляется на первое задание, и оно оборачивается катастрофой…
/ Сэмпл
Реклама: Нет
Качество: HDTVRip 720p
Формат: MKV
Видео кодек: H.264
Аудио кодек: AC3
Видео: MPEG-4 AVC, 1280x720 (16:9), 25.000 fps, 3 500 Kbps, 0.152 bits/pixel
Аудио: 48 kHz, AC3 Dolby Digital, 2 ch, 192 Kbps
Rip by Nikolspup
General

Complete name : Downloads\Pyat.minut.tishiny.2017.HDTVRip.(720p).Nikolspup\Pyat.minut.tishiny.(01.seriya.iz.10).2017.HDTVRip.(720p).Nikolspup.mkv
Format : Matroska
Format version : Version 2
File size : 1.20 GiB
Duration : 46mn 31s
Overall bit rate : 3 694 Kbps
Encoded date : UTC 2017-02-21 05:45:01
Writing application : mkvmerge v5.8.0 ('No Sleep / Pillow') built on Sep 2 2012 15:37:04
Writing library : libebml v1.2.3 + libmatroska v1.3.0
Video #1
ID : 1
Format : AVC
Format/Info : Advanced Video Codec
Format profile : High@L4.1
Format settings, CABAC : Yes
Format settings, ReFrames : 9 frames
Codec ID : V_MPEG4/ISO/AVC
Duration : 46mn 31s
Bit rate : 3 500 Kbps
Width : 1 280 pixels
Height : 720 pixels
Display aspect ratio : 16:9
Frame rate mode : Constant
Frame rate : 25.000 fps
Color space : YUV
Chroma subsampling : 4:2:0
Bit depth : 8 bits
Scan type : Progressive
Bits/(Pixel*Frame) : 0.152
Stream size : 1.11 GiB (93%)
Writing library : x264 core 146 r2538 121396c
Encoding settings : cabac=1 / ref=9 / deblock=1:-3:-3 / analyse=0x3:0x113 / me=umh / subme=11 / psy=1 / psy_rd=1.00:0.20 / mixed_ref=1 / me_range=32 / chroma_me=1 / trellis=2 / 8x8dct=1 / cqm=0 / deadzone=21,11 / fast_pskip=0 / chroma_qp_offset=-3 / threads=4 / lookahead_threads=1 / sliced_threads=0 / nr=0 / decimate=0 / interlaced=0 / bluray_compat=0 / constrained_intra=0 / bframes=12 / b_pyramid=2 / b_adapt=2 / b_bias=0 / direct=3 / weightb=1 / open_gop=0 / weightp=2 / keyint=250 / keyint_min=25 / scenecut=40 / intra_refresh=0 / rc_lookahead=60 / rc=2pass / mbtree=0 / bitrate=3500 / ratetol=1.0 / qcomp=0.60 / qpmin=0 / qpmax=69 / qpstep=4 / cplxblur=20.0 / qblur=0.5 / vbv_maxrate=14000 / vbv_bufsize=14000 / nal_hrd=none / filler=0 / ip_ratio=1.40 / pb_ratio=1.30 / aq=3:0.80
Default : No
Forced : No
Color primaries : BT.709
Transfer characteristics : BT.709
Matrix coefficients : BT.709
Color range : Limited
Audio #2
ID : 2
Format : AC-3
Format/Info : Audio Coding 3
Mode extension : CM (complete main)
Format settings, Endianness : Big
Codec ID : A_AC3
Duration : 46mn 31s
Bit rate mode : Constant
Bit rate : 192 Kbps
Channel(s) : 2 channels
Channel positions : Front: L R
Sampling rate : 48.0 KHz
Bit depth : 16 bits
Compression mode : Lossy
Stream size : 63.9 MiB (5%)
Language : Russian
Default : Yes
Forced : Yes


Трекер:  [ 24-Фев-2017 18:30 ]

  

Скачать .torrent

Размер .torrent файла 17 KB


Размер: 12.22 GB
Хэш (hash) релиза: 7362705badfb85fea6c6c8c8f6495e2a84ac7c82
Подписка на обновления:

Торренты, похожие на Пять минут тишины Серии: 1-10 из 10 скачать торрент

Форум Название Автор Размер S L Добавлен
Российские сериалы ·· Пять минут тишины / Серии: 1-2 из 10 (Алексей Праздников) [2017, Приключения, детектив, HDTVRip] Galfimbul 12576972801.17 GB 0 0 1487625484

00:18

21-Фев-17

Российские сериалы ·· Пять минут тишины / Серии: 1-2 из 10 (Алексей Праздников) [2017,приключения, мелодрама, SATRip-AVC] Galfimbul 13323389751.24 GB 0 0 1487616316

21:45

20-Фев-17

Еще никто не оставлял запись к записи скачать торрент Пять минут тишины Серии: 1-10 из 10 . Будь первым!

!Обратная связь