Скачать порно через торрент Fratboy Affairs Fratboy дел UnionPeer.org бесплатно онлайн HD качество

Скачать новое порно 2015, 2014 новинки через торрент UnionPeer.org

Порно торрент бесплатно ЮнионПир.орг

Если у вас наблюдаются проблемы со скриншотами, переходом по ссылками, скачиванием торрентов - проблемы в блокировщике рекламы AdBlock. #хорошегоДня!


Статистика раздачи
Размер:  899 MB   |    Зарегистрирован:  8 месяцев   |    .torrent скачан:  45 раз   |   
Раздают:  1  
   
Загрузка...
 
Автор Сообщение

Galfimbul

avatar Galfimbul


Fratboy Affairs / Fratboy дел

Год производства: 2008 г.
Страна: U.S.
Жанр: all sex
Продолжительность: 01:32:38

Режиссер: Keith Miller
Студия: Helix Studios

В ролях: Chad Stevens
Jacob Patrick
Kayden Daniels
Michael Lee (hx)
Nathan Frost
Nick Angels
Riley Finn
Shawn Fox
Tristan Sommers

Описание: The Fratboys are at it again, mixing a little office work with some sexual affairs. Watch this five scene feature with resident hotties Shawn Fox, Nick Angels, and Michael lee as they fuck their way through the frat house once more. No hole is left untouched! These promiscuous frat studs can't wait to bet their eager lips on a stiff cock before bending over and getting their asses pounded like never before!
General
Format : AVI
Format/Info : Audio Video Interleave
File size : 899 MiB
Duration : 1h 32mn
Overall bit rate : 1 357 Kbps
Writing application : VirtualDubMod 1.5.4.1 (build 2178/release)

Video
ID : 0
Format : MPEG-4 Visual
Format profile : Advanced Simple@L5
Format settings, BVOP : 1
Format settings, QPel : No
Format settings, GMC : No warppoints
Format settings, Matrix : Custom
Codec ID : XVID
Codec ID/Hint : XviD
Duration : 1h 32mn
Bit rate : 1 157 Kbps
Width : 720 pixels
Height : 416 pixels
Display aspect ratio : 16:9
Frame rate : 29.970 fps
Color space : YUV
Chroma subsampling : 4:2:0
Bit depth : 8 bits
Scan type : Progressive
Compression mode : Lossy
Bits/(Pixel*Frame) : 0.129
Stream size : 767 MiB (85%)
Writing library : XviD 1.2.0.dev47 (UTC 2006-11-01)

Audio
ID : 1
Format : AC-3
Format/Info : Audio Coding 3
Mode extension : CM (complete main)
Codec ID : 2000
Duration : 1h 32mn
Bit rate mode : Constant
Bit rate : 192 Kbps
Channel(s) : 2 channels
Channel positions : Front: L R
Sampling rate : 48.0 KHz
Bit depth : 16 bits
Compression mode : Lossy
Stream size : 127 MiB (14%)
Alignment : Split accross interleaves
Interleave, duration : 96 ms (2.88 video frames)
Interleave, preload duration : 96 ms

Доп. информация: http://www.gayeroticvideoindex.com/V/6/41526.html

Качество видео: DVDRip
Формат видео: AVI
Видео: Format : MPEG-4 Visual
Аудио: Format : AC-3


Трекер:  [ 24-Фев-2017 17:30 ]

  

Скачать .torrent

Размер .torrent файла 18 KB


Размер: 899 MB
Хэш (hash) релиза: 91fc13349dd378069f13be7d19e90e65c22057a3

Еще никто не оставлял запись к записи скачать торрент Fratboy Affairs Fratboy дел . Будь первым!

!Обратная связь