Скачать порно через торрент Executive Action Исполнительная власть UnionPeer.org бесплатно онлайн HD качество

Скачать новое порно 2015, 2014 новинки через торрент UnionPeer.org

Порно торрент бесплатно ЮнионПир.орг

Если у вас наблюдаются проблемы со скриншотами, переходом по ссылками, скачиванием торрентов - проблемы в блокировщике рекламы AdBlock. #хорошегоДня!


Статистика раздачи
Размер:  700 MB   |    Зарегистрирован:  7 месяцев   |    .torrent скачан:  73 раза   |   
Раздают:  1  
   
Загрузка...
 
Автор Сообщение

Galfimbul

avatar Galfimbul



Executive Action
Исполнительная власть

Год производства:
1991 г.
Страна:
US
Жанр:
Oral, Anal Sex, Bareback
Продолжительность:
01:15:48
Студия:
Altomar Video
Режиссер:
Thor Johnson
В ролях:
Brad Kline, Marc Mann, Mike Miller, Sean Flaherty, Zeff Ryan, Tom Ward.
Описание:
Altomar continues its exposé of horny, hard working men with a glimpse of some white collar studs at play. From three piece suits to sexy boxer shorts, these daddies will show you what it really means to go first class. Brad Kline makes his movie debut as a straight ad rep who happens to meet smooth and charming Zeff Ryan while on a business trip. Their casual lunch turns into a steamy affair as Zeff cranks up the heat on first timer Brad. Their extended fuck scene is the most erotic and passionate Altomar has ever brought to you. These two leave ''no holes barred'' as they explore each other''s manly aspects to gushing end.
Just when Brad decides to leave all this foolishness behind and get down to work, fate steps in and, through a mix up at the hotel, lands him in the room of executive v.p, Marc Mann, who graciously consents to let Brad bunk with him. Marc knows a good man when he sees one and keeps Brad busy for several days while matters get serious back at the home office.
Eccentric CEO Sean Flaherty calls Marc in to read him the riot act about his outrageous spending. (If Marc had read the old man''s memo, he would''ve known his ass was in a sling.) Flaherty soon makes it abundantly clear as he demands that Marc submit to a bare assed spanking as punishment, or be fired. It doesn''t take long for this over sexed granddad to be overcome with lust for Marc''s hairy ass cheeks and rock hard boner. This form of punishment could be addictive, teaching Marc a valuable lesson about corporate clout. . . . but that''s another story!
Executive Action is a must see for those who fancy men in corporate settings and business attire, getting down to the basics of office politics with hard, wet action between horny sons, dads and granddads!
Качество видео:
DVDRip
Формат видео:
AVI
Видео:
MPEG-4 Visual, 704x528, 29.970 fps, 1 152 kb/s
Аудио:
MPEG Audio, 48.0 kHz, Lossy, 128 kbps
Format : DivX
Format/Info : Hack of AVI
File size : 700 MiB
Duration : 1 h 15 min
Overall bit rate : 1 291 kb/s

Video
ID : 0
Format : MPEG-4 Visual
Format settings, BVOP : 1
Format settings, QPel : No
Format settings, GMC : No warppoints
Format settings, Matrix : Default (H.263)
Muxing mode : Packed bitstream
Codec ID : DX50
Codec ID/Hint : DivX 5
Duration : 1 h 15 min
Bit rate : 1 152 kb/s
Nominal bit rate : 4 854 kb/s
Width : 704 pixels
Height : 528 pixels
Display aspect ratio : 4:3
Frame rate : 29.970 (30000/1001) FPS
Color space : YUV
Chroma subsampling : 4:2:0
Bit depth : 8 bits
Scan type : Progressive
Compression mode : Lossy
Bits/(Pixel*Frame) : 0.103
Stream size : 624 MiB (89%)
Title : Video
Writing library : DivX 6.2.5 (UTC 2006-07)

Audio
ID : 1
Format : MPEG Audio
Format version : Version 1
Format profile : Layer 3
Mode : Dual mono
Codec ID : 55
Codec ID/Hint : MP3
Duration : 1 h 15 min
Bit rate mode : Constant
Bit rate : 128 kb/s
Channel(s) : 2 channels
Sampling rate : 48.0 kHz
Compression mode : Lossy
Stream size : 69.4 MiB (10%)
Alignment : Split accross interleaves
Interleave, duration : 33 ms (1.00 video frame)
Interleave, preload duratio : 500 ms
Title : Audio


Трекер:  [ 24-Фев-2017 13:00 ]

  

Скачать .torrent

Размер .torrent файла 14 KB


Размер: 700 MB
Хэш (hash) релиза: 2d44fecd08a30149d888038d4c0943cd3903348a

Еще никто не оставлял запись к записи скачать торрент Executive Action Исполнительная власть . Будь первым!

!Обратная связь