Скачать через торрент Боевая Единичка Серии: 1-4 из 4 Фильм бесплатно в хорошем качестве torrent

Скачивайте на UnionPeer.org фильмы через торрент без регистрации. Новинки кино в хорошем качестве через торрент. На UnionPeer.org можно скачать через торрент фильмы 2014 и 2015 годов. Самые новые фильмы.

Скачать торрент Боевая Единичка Серии: 1-4 из 4 бесплатно через .torrent фильм мультфильм сериал

Если у вас наблюдаются проблемы со скриншотами, переходом по ссылками, скачиванием торрентов - проблемы в блокировщике рекламы AdBlock. #хорошегоДня!


Статистика раздачи
Размер:  2.34 GB   |    Зарегистрирован:  4 месяца 25 дней   |    .torrent скачан:  163 раза   |   
Раздают:  1  
   
Загрузка...
 
Автор Сообщение

Galfimbul

avatar Galfimbul


Боевая Единичка
Год выпуска: 2017
Производство: Марс Медиа Энтертейнмент
Жанр: Военный, драма
Продолжительность: 00:45:41
Субтитры: нет
Режиссёр: Кирилл Белевич
В ролях: Андрей Мерзликин, Илья Коробко, Анна Прус, Арина Борисова, Александр Вершинин, Михаил Евланов, Микаэл Джанибекян, Сергей Габриэлян, Добрыня Белевич-Оболенский, Якуб Здруйковский, Анна Зекеева, Марцин Стец
Описание: Сценарий телефильма написан по повести Александра Николаева «Мы все, не считая детей». Сериал «Боевая Единичка» перенесет зрителей в 1944 год. Советские войска уверенно ведут наступление в Восточной Польше. Командир военного батальона Егоров получает несложную на первый взгляд боевую задачу – его бойцы должны взять под контроль старый мост, который является важным стратегическим объектом, через него будут проходить советские войска. Но поляки собираются взорвать мост, ведь он является спасением для отступающих немецких солдат. Егоров и его бойцы занимают нужные позиции, и тут они обнаруживают полуразрушенный монастырь, в котором нашли спасение и приют дети инвалиды по слуху и их воспитательница Ева, готовая, словно тигрица, защищать ребят. Перед героями фильма стоит сложная дилемма – выполнять военный приказ или, поддавшись зову сердца, спасти жизни детей, волею случая оказавшихся в эпицентре возможных боев. В этой ситуации многое зависит от поведения командира, от его способности принять судьбоносное решение.
/ Сэмпл
Релиз от:
Качество: HDTVRip
Формат: AVI
Видео кодек: XviD
Аудио кодек: AC3
Видео: 720x384 (16:9), 25.000 fps, XviD build 73, 1629 Kbps, 0.22 Bits/Pixel
Аудио: 48 kHz, AC3 Dolby Digital, 2 ch, 192 Kbps
Реклама: Нет
General
Complete name : Downloads\Boevaja.edinichka.2015.HDTVRip.Files-x\Boevaja.edinichka.01.2015.HDTVRip.Files-x.avi
Format : AVI
Format/Info : Audio Video Interleave
File size : 598 MiB
Duration : 45mn 41s
Overall bit rate : 1 831 Kbps
Writing application : VirtualDubMod 1.5.10.3 | www.virtualdub-fr.org || (build 2550/release)
Writing library : VirtualDubMod build 2550/release
Video #0
ID : 0
Format : MPEG-4 Visual
Format profile : Advanced Simple@L5
Format settings, BVOP : 1
Format settings, QPel : No
Format settings, GMC : No warppoints
Format settings, Matrix : Custom
Codec ID : XVID
Codec ID/Hint : XviD
Duration : 45mn 41s
Bit rate : 1 629 Kbps
Width : 720 pixels
Height : 400 pixels
Display aspect ratio : 16:9
Frame rate : 25.000 fps
Color space : YUV
Chroma subsampling : 4:2:0
Bit depth : 8 bits
Scan type : Progressive
Compression mode : Lossy
Bits/(Pixel*Frame) : 0.226
Stream size : 532 MiB (89%)
Writing library : XviD 73
Audio #1
ID : 1
Format : AC-3
Format/Info : Audio Coding 3
Mode extension : CM (complete main)
Format settings, Endianness : Big
Codec ID : 2000
Duration : 45mn 41s
Bit rate mode : Constant
Bit rate : 192 Kbps
Channel(s) : 2 channels
Channel positions : Front: L R
Sampling rate : 48.0 KHz
Bit depth : 16 bits
Compression mode : Lossy
Stream size : 62.8 MiB (10%)
Alignment : Split accross interleaves
Interleave, duration : 40 ms (1.00 video frame)
Interleave, preload duration : 500 ms


Трекер:  [ 24-Фев-2017 01:00 ]

  

Скачать .torrent

Размер .torrent файла 12 KB


Размер: 2.34 GB
Хэш (hash) релиза: 7f3e2f38caa7032f08883de1a76c11746f9c25d6
Подписка на обновления:

Торренты, похожие на Боевая Единичка Серии: 1-4 из 4 скачать торрент

Форум Название Автор Размер S L Добавлен
Российские сериалы ·· Боевая единичка / Серии: 1-4 из 4 (Кирилл Белевич) [2015, Военный, драма, HDTV 1080i] Galfimbul 1265088020811.78 GB 0 0 1487939223

15:27

24-Фев-17

Еще никто не оставлял запись к записи скачать торрент Боевая Единичка Серии: 1-4 из 4 . Будь первым!

!Обратная связь