Скачать через торрент музыку Исчезновение The Vanishing бесплатно без регистрации torrent

Если у вас наблюдаются проблемы со скриншотами, переходом по ссылками, скачиванием торрентов - проблемы в блокировщике рекламы AdBlock. #хорошегоДня!


Статистика раздачи
Размер:  322 MB   |    Зарегистрирован:  6 месяцев   |    .torrent скачан:  13 раз   |   
Раздают:  1  
   
Загрузка...
 
Автор Сообщение

Galfimbul

avatar Galfimbul


Исчезновение / The Vanishing

Жанр: Score
Композитор: Jerry Goldsmith
Год выпуска диска: 2007
Год выпуска фильма: 1993
Производитель диска: USA
Издатель (лейбл): Varese Sarabande
Номер по каталогу: VCL 0307 1060

Аудиокодек: FLAC (*.flac)
Тип рипа: image+.cue
Битрейт аудио: lossless
Продолжительность: 64:55
Источник: собственный рип
Наличие сканов в содержимом раздачи: да (600 dpi)
01. Practice [04:50.24]
02. The Stars [01:05.55]
03. Statistics [01:52.41]
04. Steps [01:07.20]
05. Apologies [02:16.09]
06. Forever [01:37.13]
07. Diane's Missing [02:34.27]
08. That's It [00:55.29]
09. Passing Time [00:38.49]
10. A Night's Sleep [01:41.09]
11. Weekend Duty [02:12.20]
12. The Password [04:40.35]
13. The Vision [03:45.39]
14. New Message [02:30.17]
15. Hello, Jeff [00:39.21]
16. Let Me Tell You [03:20.13]
17. A Variation [02:18.15]
18. The Lure [01:00.37]
19. Abduction [02:40.71]
20. Don't Tell [00:52.32]
21. Drink [04:01.48]
22. Surprise [02:07.57]
23. Where's Jeff? [03:46.58]
24. Let's Talk [09:02.31]
25. End Titles [03:17.43]
Exact Audio Copy V1.0 beta 3 from 29. August 2011

EAC extraction logfile from 16. February 2016, 20:05

Jerry Goldsmith / The Vanishing

Used drive : TSSTcorpCDDVDW SH-S202H Adapter: 0 ID: 0

Read mode : SecureUtilize accurate stream : YesDefeat audio cache : YesMake use of C2 pointers : No

Read offset correction : 6Overread into Lead-In and Lead-Out : NoFill up missing offset samples with silence : YesDelete leading and trailing silent blocks : NoNull samples used in CRC calculations : YesUsed interface : Native Win32 interface for Win NT & 2000

Used output format : Internal WAV RoutinesSample format : 44.100 Hz; 16 Bit; Stereo

TOC of the extracted CD

Track | Start | Length | Start sector | End sector --------------------------------------------------------- 1 | 0:00.00 | 4:50.24 | 0 | 21773 2 | 4:50.24 | 1:05.55 | 21774 | 26703 3 | 5:56.04 | 1:52.41 | 26704 | 35144 4 | 7:48.45 | 1:07.20 | 35145 | 40189 5 | 8:55.65 | 2:16.09 | 40190 | 50398 6 | 11:11.74 | 1:37.13 | 50399 | 57686 7 | 12:49.12 | 2:34.27 | 57687 | 69263 8 | 15:23.39 | 0:55.29 | 69264 | 73417 9 | 16:18.68 | 0:38.49 | 73418 | 76316 10 | 16:57.42 | 1:41.09 | 76317 | 83900 11 | 18:38.51 | 2:12.20 | 83901 | 93820 12 | 20:50.71 | 4:40.35 | 93821 | 114855 13 | 25:31.31 | 3:45.39 | 114856 | 131769 14 | 29:16.70 | 2:30.17 | 131770 | 143036 15 | 31:47.12 | 0:39.21 | 143037 | 145982 16 | 32:26.33 | 3:20.13 | 145983 | 160995 17 | 35:46.46 | 2:18.15 | 160996 | 171360 18 | 38:04.61 | 1:00.37 | 171361 | 175897 19 | 39:05.23 | 2:40.71 | 175898 | 187968 20 | 41:46.19 | 0:52.32 | 187969 | 191900 21 | 42:38.51 | 4:01.48 | 191901 | 210023 22 | 46:40.24 | 2:07.57 | 210024 | 219605 23 | 48:48.06 | 3:46.58 | 219606 | 236613 24 | 52:34.64 | 9:02.31 | 236614 | 277294 25 | 61:37.20 | 3:17.43 | 277295 | 292112

Range status and errors

Selected range

Filename D:\Jerry Goldsmith - The Vanishing\Jerry Goldsmith - The Vanishing.wav

Peak level 100.0 % Extraction speed 7.6 X Range quality 100.0 % Test CRC 342AA43F Copy CRC 342AA43F Copy OK

No errors occurred

AccurateRip summary

Track 1 accurately ripped (confidence 10) [C22036DD] (AR v2)Track 2 accurately ripped (confidence 10) [8E1FE4F6] (AR v2)Track 3 accurately ripped (confidence 10) [3C2F36A9] (AR v2)Track 4 accurately ripped (confidence 10) [0F1A6CF9] (AR v2)Track 5 accurately ripped (confidence 10) [4EF5E365] (AR v2)Track 6 accurately ripped (confidence 10) [E701C278] (AR v2)Track 7 accurately ripped (confidence 10) [1F16D287] (AR v2)Track 8 accurately ripped (confidence 10) [76DB9621] (AR v2)Track 9 accurately ripped (confidence 10) [E079F4B3] (AR v2)Track 10 accurately ripped (confidence 10) [74B5D918] (AR v2)Track 11 accurately ripped (confidence 10) [57F2F993] (AR v2)Track 12 accurately ripped (confidence 10) [CB353C2E] (AR v2)Track 13 accurately ripped (confidence 10) [3361F474] (AR v2)Track 14 accurately ripped (confidence 10) [C666F243] (AR v2)Track 15 accurately ripped (confidence 10) [E303E7E4] (AR v2)Track 16 accurately ripped (confidence 10) [53BBA92A] (AR v2)Track 17 accurately ripped (confidence 10) [5BEADC3A] (AR v2)Track 18 accurately ripped (confidence 10) [BC42A144] (AR v2)Track 19 accurately ripped (confidence 10) [47449854] (AR v2)Track 20 accurately ripped (confidence 10) [D83FD33F] (AR v2)Track 21 accurately ripped (confidence 10) [CD99E06B] (AR v2)Track 22 accurately ripped (confidence 10) [C8650CAE] (AR v2)Track 23 accurately ripped (confidence 10) [C146B0CA] (AR v2)Track 24 accurately ripped (confidence 10) [4A61236C] (AR v2)Track 25 accurately ripped (confidence 10) [CF6A5857] (AR v2)

All tracks accurately ripped

End of status report

==== Log checksum 9B8FDCD3A84A00B2B8136CAADFFFF1C9BCF0C5E8254B56607011141ED9A75E0C ====
Писатель и его невеста едут в романтическое путешествие. Во время одной из остановок героиня уходит в магазинчик и... исчезает. Спустя 3 года герой предпринимает новую попытку найти свою любимую, но на сей раз события грозят смертью уже ему самому...
В 1988 году Джордж Слейзер снял "первую" версию данной картины. "Проблема" была в том, что фильм был франко-нидерландского производства, а посему - плохо бы продавался в США. По-крайней мере, так думали продюсеры. А вот критики и зрители изначальным фильмом были очень довольны.
В итоге, 5 лет спустя тот же режиссер снимает "голливудскую" версию фильма, с другими актерами и другим финалом. Естественно фильм приняли более чем прохладно.
Но вот что в нем было хорошего - так это музыка. В очередной раз Джерри Голдсмит попытался спасти не самый удачный фильм. В общем и целом ему это удалось.
Как всегда нас ждут запоминающиеся темы, великолепный саспенс, зубодробительная смесь оркестра с синтезаторами (увы, сейчас так уже не пишут!). В общем - Маэстро Джерри во всей красе.



Трекер:  [ 23-Фев-2017 16:00 ]

  

Скачать .torrent

Размер .torrent файла 13 KB


Размер: 322 MB
Хэш (hash) релиза: dbe03e17fcf9bd893e4d5b297174aae2b7190347

Еще никто не оставлял запись к записи скачать торрент Исчезновение The Vanishing . Будь первым!

!Обратная связь