Скачать порно через торрент Dock 9 Док 9 UnionPeer.org бесплатно онлайн HD качество

Скачать новое порно 2015, 2014 новинки через торрент UnionPeer.org

Порно торрент бесплатно ЮнионПир.орг

Если у вас наблюдаются проблемы со скриншотами, переходом по ссылками, скачиванием торрентов - проблемы в блокировщике рекламы AdBlock. #хорошегоДня!


Статистика раздачи
Размер:  1.1 GB   |    Зарегистрирован:  7 месяцев   |    .torrent скачан:  59 раз   |   
Раздают:  1  
   
Загрузка...
 
Автор Сообщение

Galfimbul

avatar Galfimbul



Dock 9
Док 9

Год производства:
1986 г.
Страна:
US
Жанр:
Anal Sex, Masturbation
Продолжительность:
01:21:21
Студия:
Adam and Company
Режиссер:
Thor Johnson
В ролях:
Jamie Bleu, Max Montoya, Melchor Diaz.
Описание:
If your fetish is uncut cocks then this video is for you! Hot men are rimming, sucking and pounding ass with their uncut cocks. Take this journey into the pleasures of foreskins. Pre-condom.
Качество видео:
VHSRip
Формат видео:
AVI
Видео:
MPEG-4 Visual, 720x480, 29.970 fps, 900 kb/s
Аудио:
PCM, 32.0 kHz, Lossy, 1 024 kb/s
Format : AVI
Format/Info : Audio Video Interleave
Format profile : OpenDML
File size : 1.10 GiB
Duration : 1 h 21 min
Overall bit rate : 1 929 kb/s

Video
ID : 0
Format : MPEG-4 Visual
Format profile : Simple@L1
Format settings, BVOP : No
Format settings, QPel : No
Format settings, GMC : No warppoints
Format settings, Matrix : Default (H.263)
Codec ID : XVID
Codec ID/Hint : XviD
Duration : 1 h 21 min
Source duration : 1 h 21 min
Bit rate : 900 kb/s
Width : 720 pixels
Height : 480 pixels
Display aspect ratio : 3:2
Frame rate : 29.970 (30000/1001) FPS
Standard : NTSC
Color space : YUV
Chroma subsampling : 4:2:0
Bit depth : 8 bits
Scan type : Progressive
Compression mode : Lossy
Bits/(Pixel*Frame) : 0.087
Stream size : 524 MiB (47%)
Writing library : Lavc51.49.0

Audio
ID : 1
Format : PCM
Format settings, Endianness : Little
Format settings, Sign : Signed
Codec ID : 1
Duration : 1 h 21 min
Bit rate mode : Constant
Bit rate : 1 024 kb/s
Channel(s) : 2 channels
Sampling rate : 32.0 kHz
Bit depth : 16 bits
Stream size : 596 MiB (53%)
Alignment : Aligned on interleaves
Interleave, duration : 250 ms (7.49 video frames)
Interleave, preload duratio : 468 ms


Трекер:  [ 23-Фев-2017 08:30 ]

  

Скачать .torrent

Размер .torrent файла 11 KB


Размер: 1.1 GB
Хэш (hash) релиза: 28c4f2af3c3deefede209d9faf944f99fe11ba1e

Еще никто не оставлял запись к записи скачать торрент Dock 9 Док 9 . Будь первым!

!Обратная связь