Скачать порно через торрент The Matinee Idol Матини идол UnionPeer.org бесплатно онлайн HD качество

Скачать новое порно 2015, 2014 новинки через торрент UnionPeer.org

Порно торрент бесплатно ЮнионПир.орг

Если у вас наблюдаются проблемы со скриншотами, переходом по ссылками, скачиванием торрентов - проблемы в блокировщике рекламы AdBlock. #хорошегоДня!


Статистика раздачи
Размер:  1.78 GB   |    Зарегистрирован:  7 месяцев   |    .torrent скачан:  58 раз   |   
Раздают:  1  
   
Загрузка...
 
Автор Сообщение

Galfimbul

avatar Galfimbul



The Matinee Idol
Матини идол

Год производства:
1995 г.
Страна:
US
Жанр:
Oral,Anal Sex,Bareback
Продолжительность:
01:47:44
Студия:
HIS Video
Режиссер:
Gino Colbert
В ролях:
Ken Ryker, Christian Fox, Vince Rockland, Jake Andrews, Sean Diamond, Hank Hightower, Vic Hall, Chad Connors, Rob Cryston, Gio Romano, Jim Bentley.
Описание:
Ironically, The Matinee Idol is a movie whose production was marked by as much scandal as the story it tells. That explains why it''s one of the most anticipated releases of the year. In this big-budge feature from prudcer/director Gino Colbert, Ken Ryker plays a Hollywood superstar whose gay porn past is about to catch up with him. Faced with the threats of being exposed in the media and possibly losing his career, Ken must decide whether to run from the truth or face it once and for all. We won''t spoil the ending for you, suffice it to say that ken handles his tribulations like a real man. Boasting one of the most impressive casts assembled this year, as well as Ken''s hottest performance ever, and you have the makings of an instant classic.
Качество видео:
DVDRip
Формат видео:
AVI
Видео:
MPEG-4 Visual , 720x544, 29.970 fps,2 164 kb/s
Аудио:
MPEG Audio, 44.1 kHz, Lossy, 192 kb/s
Format : AVI
Format/Info : Audio Video Interleave
File size : 1.78 GiB
Duration : 1 h 47 min
Overall bit rate : 2 368 kb/s
Writing application : VirtualDubMod 1.5.10.3 | www.virtualdub-fr.org || (build 2550/release)
Writing library : VirtualDubMod build 2550/release

Video
ID : 0
Format : MPEG-4 Visual
Format profile : Advanced Simple@L5
Format settings, BVOP : 1
Format settings, QPel : No
Format settings, GMC : No warppoints
Format settings, Matrix : Default (H.263)
Muxing mode : Packed bitstream
Codec ID : XVID
Codec ID/Hint : XviD
Duration : 1 h 47 min
Bit rate : 2 164 kb/s
Width : 720 pixels
Height : 544 pixels
Display aspect ratio : 1.125
Original display aspect rat : 4:3
Frame rate : 29.970 (30000/1001) FPS
Color space : YUV
Chroma subsampling : 4:2:0
Bit depth : 8 bits
Scan type : Progressive
Compression mode : Lossy
Bits/(Pixel*Frame) : 0.184
Stream size : 1.63 GiB (91%)
Writing library : XviD 1.2.1 (UTC 2008-12-04)

Audio
ID : 1
Format : MPEG Audio
Format version : Version 1
Format profile : Layer 3
Codec ID : 55
Codec ID/Hint : MP3
Duration : 1 h 47 min
Bit rate mode : Constant
Bit rate : 192 kb/s
Channel(s) : 2 channels
Sampling rate : 44.1 kHz
Compression mode : Lossy
Delay relative to video : 26 ms
Stream size : 148 MiB (8%)
Alignment : Split accross interleaves
Interleave, duration : 33 ms (1.00 video frame)
Interleave, preload duratio : 500 ms


Трекер:  [ 22-Фев-2017 01:00 ]

  

Скачать .torrent

Размер .torrent файла 18 KB


Размер: 1.78 GB
Хэш (hash) релиза: 90356d3ca9fab14e46328041914a97fa851f343a

Еще никто не оставлял запись к записи скачать торрент The Matinee Idol Матини идол . Будь первым!

!Обратная связь