Скачать через торрент Пять сантиметров в секунду Byousoku 5 Centimeter бесплатно Аниме Все серии на русском torrent

Если у вас наблюдаются проблемы со скриншотами, переходом по ссылками, скачиванием торрентов - проблемы в блокировщике рекламы AdBlock. #хорошегоДня!


Статистика раздачи
Размер:  5.37 GB   |    Зарегистрирован:  7 месяцев   |    .torrent скачан:  26 раз   |   
Раздают:  2  
   
Загрузка...
 
Автор Сообщение

Galfimbul

avatar Galfimbul



Год выпуска: 2007 | Страна: Япония
Жанр: романтика, драма
Продолжительность: Movie, 60 мин.
Перевод: субтитры от Reanimedia
Озвучка:
▪ #1-2 дубляж от Reanimedia
▪ #3 одноголосая муж от Cuba77
▪ #4 двухголосая муж/жен от Добрый Сказочник и Keneretta
Режиссер: Синкай Макото
Студия:
Описание: Такаки Тоно с детства был близок с Акари Синохарой, но в средней школе они вынуждены расстаться из-за переезда семьи Акари в другой город.
Несмотря на разлуку, дружба лишь крепнет, подростки живут не слишком далеко друг от друга и часто переписываются по почте. Однако наступает момент, когда уже семья Такаки должна переехать, и Акари с Такаки решают встретиться возможно в последний раз. Но зима Японии путает планы, из-за бурана рейсы поездов сильно задерживаются...
Проходят годы, с течением времени увядают и отношения, переписка становится все реже, и Такаки с Акари все сильнее отдаляются друг от друга. Остаются лишь тени воспоминаний о детстве, и слабая надежда когда-нибудь встретиться снова...
AniDB World Art MAL
Качество: BDRip | Рип: Jensen [Beatrice-Raws]
Тип релиза: без хардсаба, без линковки
Формат видео: MKV
Видео: x264, Hi10P, 1920x1080, 23.976fps, 6691 Kbps
Аудио JAP: FLAC, 48.0 kHz, 2.0 ch, 555 Kbps

Аудио JAP (ext): FLAC, 48.0 kHz, 4.0 ch, 775 Kbps
Аудио RUS 1 (ext): FLAC, 48.0 kHz, 2.0 ch, 555 Kbps
Аудио RUS 2 (ext): FLAC, 48.0 kHz, 5.1 ch, 24 bit, 2608 Kbps
Аудио RUS 3 (ext): AAC, 48.0 kHz, 2.0 ch, 130 Kbps
Аудио RUS 4 (ext): AC3, 48.0 kHz, 4.0 ch, 448 Kbps
GeneralUnique ID : 209515772595220246101072000794157738172 (0x9D9F452070D321CB881B7EB8CB8568BC)Complete name : f:\[Beatrice-Raws] Byousoku 5 Centimeter [BDRip 1920x1080 x264 FLAC]\[Beatrice-Raws] Byousoku 5 Centimeter [BDRip 1920x1080 x264 FLAC].mkvFormat : MatroskaFormat version : Version 4 / Version 2File size : 2.93 GiBDuration : 1 h 2 minOverall bit rate mode : VariableOverall bit rate : 6 686 kb/sEncoded date : UTC 2016-09-29 21:58:41Writing application : mkvmerge v7.1.0 ('Good Love') 64bit built on Jul 27 2014 13:06:55Writing library : libebml v1.3.0 + libmatroska v1.4.1

VideoID : 1Format : AVCFormat/Info : Advanced Video CodecFormat profile : High 10@L5Format settings, CABAC : YesFormat settings, ReFrames : 4 framesCodec ID : V_MPEG4/ISO/AVCDuration : 1 h 2 minBit rate : 6 120 kb/sWidth : 1 920 pixelsHeight : 1 080 pixelsDisplay aspect ratio : 16:9Frame rate mode : ConstantFrame rate : 23.976 (24000/1001) FPSColor space : YUVChroma subsampling : 4:2:0Bit depth : 10 bitsScan type : ProgressiveBits/(Pixel*Frame) : 0.123Stream size : 2.68 GiB (91%)Title : BDrip by JensenWriting library : x264 core 148 r2665 a01e339Encoding settings : cabac=1 / ref=4 / deblock=1:1:-1 / analyse=0x3:0x113 / me=umh / subme=11 / psy=1 / psy_rd=1.00:0.00 / mixed_ref=1 / me_range=32 / chroma_me=1 / trellis=2 / 8x8dct=1 / cqm=0 / deadzone=21,11 / fast_pskip=1 / chroma_qp_offset=-2 / threads=6 / lookahead_threads=1 / sliced_threads=0 / nr=0 / decimate=1 / interlaced=0 / bluray_compat=0 / constrained_intra=0 / bframes=10 / b_pyramid=2 / b_adapt=2 / b_bias=0 / direct=1 / weightb=1 / open_gop=0 / weightp=2 / keyint=240 / keyint_min=23 / scenecut=40 / intra_refresh=0 / rc=crf / mbtree=0 / crf=14.5 / qcomp=0.72 / qpmin=0 / qpmax=81 / qpstep=4 / ip_ratio=1.40 / pb_ratio=1.30 / aq=1:0.85Language : JapaneseDefault : YesForced : NoColor range : LimitedColor primaries : BT.709Transfer characteristics : BT.709Matrix coefficients : BT.709

AudioID : 2Format : FLACFormat/Info : Free Lossless Audio CodecCodec ID : A_FLACDuration : 1 h 2 minBit rate mode : VariableBit rate : 555 kb/sChannel(s) : 2 channelsChannel positions : Front: L RSampling rate : 48.0 kHzFrame rate : 11.719 FPS (4096 spf)Bit depth : 16 bitsStream size : 249 MiB (8%)Writing library : libFLAC 1.2.1 (UTC 2007-09-17)Language : JapaneseDefault : YesForced : No

Text #1ID : 3Format : PGSMuxing mode : zlibCodec ID : S_HDMV/PGSCodec ID/Info : Picture based subtitle format used on BDs/HD-DVDsDuration : 59 min 16 sBit rate : 15.1 kb/sCount of elements : 975Stream size : 6.38 MiB (0%)Title : FullLanguage : RussianDefault : YesForced : No

Text #2ID : 4Format : PGSMuxing mode : zlibCodec ID : S_HDMV/PGSCodec ID/Info : Picture based subtitle format used on BDs/HD-DVDsDuration : 59 min 16 sBit rate : 1 753 b/sCount of elements : 114Stream size : 761 KiB (0%)Title : InscriptionsLanguage : RussianDefault : NoForced : No

Menu00:00:00.000 : :Chapter 0100:00:59.058 : :Chapter 0200:05:41.174 : :Chapter 0300:12:56.609 : :Chapter 0400:19:08.147 : :Chapter 0500:25:55.554 : :Chapter 0600:39:17.355 : :Chapter 0700:43:47.291 : :Chapter 0800:48:30.699 : :Chapter 0900:54:46.741 : :Chapter 1000:59:55.675 : :Chapter 11
...3683640
Лучше качество.
http://screenshotcomparison.com/comparison/185797
http://diff.pics/VSMRF9VT68pj/1
...4746829
...3012763
...4329670
BDRip
...3143609
1080p


Трекер:  [ 21-Фев-2017 07:30 ]

  

Скачать .torrent

Размер .torrent файла 16 KB


Размер: 5.37 GB
Хэш (hash) релиза: 9be07cc3ed8952869a2bdd8b21993e08f8797e77
Подписка на обновления:

Торренты, похожие на Пять сантиметров в секунду Byousoku 5 Centimeter скачать торрент

Форум Название Автор Размер S L Добавлен
Аниме | HD Rips ·· Пять сантиметров в секунду / Byousoku 5 Centimeter / 5 Centimeters per Second [Movie] [Без хардсаба] [RUS(ext),JAP+SUB] [2007 г., романтика, драма, BDRip] [1080p] Galfimbul 59840916405.57 GB 0 0 1474997554

20:32

27-Сен-16

Аниме | Blu-Ray и BDRemux ·· Пять сантиметров в секунду / Byousoku 5 Centimeter / 5 Centimeters per Second (Макото Синкай / Makoto Shinkai)[Movie][RUS(int), UKR, ENG, JAP+SUB][Без хардсаба][2007 г., Романтика, драма][BDRemux][1080p] Galfimbul 1610056704214.99 GB 0 0 1391358908

19:35

2-Фев-14

Аниме | Blu-Ray и BDRemux ·· Пять сантиметров в секунду / Byousoku 5 Centimeter / 5 Centimeters per Second [Movie][Романтика, драма][BDRemux][1080p][Дублированный(JAP+SUB)] Galfimbul 1706022146015.89 GB 0 0 1356358860

17:21

24-Дек-12

Аниме | Blu-Ray и BDRemux ·· Пять сантиметров в секунду / Byousoku 5 Centimeter / 5 Centimeters per Second [Movie][Романтика, драма][Blu-Ray Disc][1080p][Дублированный(JAP+SUB)] Galfimbul 2053317856819.12 GB 0 0 1356358920

17:22

24-Дек-12

Аниме | Rips ·· Пять сантиметров в секунду / Byousoku 5 Centimeter / 5 Centimeters per Second [Movie] [RUS(ext), JAP, SUB] [2007 г., романтика, драма, BDRip-AVC][профессиональная + любительская] от R.G. Kanashimi Kanashimi 14817678671.38 GB 0 0 1325240333

13:18

30-Дек-11

Аниме | HD Rips ·· Пять сантиметров в секунду / Byousoku 5 Centimeter / 5 Centimeters per Second [Movie] [RUS(ext), JAP, SUB] [2007 г., романтика, драма, BDRip][1080p][профессиональная + любительская] L 54358555585.06 GB 0 0 1312777834

07:30

8-Авг-11

Аниме | HD Rips ·· Пять сантиметров в секунду / Byousoku 5 Centimeter / 5 Centimeters per Second [Movie] [RUS(int), JAP + SUB] [2007 г., романтика, драма, BDRip] [1080p] [Дублированный] Bot 25546112592.38 GB 0 0 1286481247

22:54

7-Окт-10

Еще никто не оставлял запись к записи скачать торрент Пять сантиметров в секунду Byousoku 5 Centimeter . Будь первым!

!Обратная связь