Скачать порно через торрент Thriller Триллер UnionPeer.org бесплатно онлайн HD качество

Скачать новое порно 2015, 2014 новинки через торрент UnionPeer.org

Порно торрент бесплатно ЮнионПир.орг

Если у вас наблюдаются проблемы со скриншотами, переходом по ссылками, скачиванием торрентов - проблемы в блокировщике рекламы AdBlock. #хорошегоДня!


Статистика раздачи
Размер:  1.25 GB   |    Зарегистрирован:  8 месяцев   |    .torrent скачан:  64 раза   |   
Раздают:  1  
   
Загрузка...
 
Автор Сообщение

Galfimbul

avatar Galfimbul



Thriller
Триллер

Год производства:
1994 г.
Страна:
US
Жанр:
Oral,Anal Sex,Bareback
Продолжительность:
01:05:34
Студия:
Thriller Video
Режиссер:
Jeff Corey
В ролях:
Alex Vender,Chris Slade,Doug Perry,Eric Houston,Keith Cassidy,Michael D''Amores,Phil Bradley,Tim Barnett,Vince Rockland
Описание:
A super-hot video loaded with non-stop excitement.
Качество видео:
DVDRip
Формат видео:
MPEG-4
Видео:
mp42 , 720x544, 29.970 fps,2 588 kb/s
Аудио:
AAC, 44.1 kHz, Lossy, 181 kb/s
Format : MPEG-4
Format profile : Base Media / Version 2
Codec ID : mp42 (mp42)
File size : 1.25 GiB
Duration : 1 h 5 min
Overall bit rate mode : Variable
Overall bit rate : 2 725 kb/s
Codirector : codirector
Production studio : studio
ContentType : Unknown Type
Encoded date : UTC 2016-10-10 21:58:03
Tagged date : UTC 2016-10-10 21:58:26

Video
ID : 1
Format : AVC
Format/Info : Advanced Video Codec
Format profile : Baseline@L3
Format settings, CABAC : No
Format settings, ReFrames : 1 frame
Format settings, GOP : M=1, N=25
Muxing mode : Container profile=Baseline@4.1
Codec ID : avc1
Codec ID/Info : Advanced Video Coding
Duration : 1 h 5 min
Source duration : 1 h 5 min
Bit rate : 2 588 kb/s
Width : 720 pixels
Height : 544 pixels
Display aspect ratio : 4:3
Frame rate mode : Constant
Frame rate : 29.970 (30000/1001) FPS
Original frame rate : 29.000 FPS
Color space : YUV
Chroma subsampling : 4:2:0
Bit depth : 8 bits
Scan type : Progressive
Bits/(Pixel*Frame) : 0.220
Stream size : 1.19 GiB (95%)
Source stream size : 1.19 GiB (95%)
Language : English
Menus : 3

Audio
ID : 2
Format : AAC
Format/Info : Advanced Audio Codec
Format profile : LC
Codec ID : 40
Duration : 1 h 5 min
Bit rate mode : Variable
Bit rate : 128 kb/s
Maximum bit rate : 181 kb/s
Channel(s) : 2 channels
Channel positions : Front: L R
Sampling rate : 44.1 kHz
Frame rate : 43.066 FPS (1024 spf)
Compression mode : Lossy
Stream size : 60.0 MiB (5%)
Title : Stereo
Language : English
Default : Yes
Alternate group : 1

Menu
ID : 3
Codec ID : text
Duration : 46 min 37 s
Encoded date : UTC 2016-10-10 21:58:26
Tagged date : UTC 2016-10-10 21:58:26
Bit rate mode : CBR
Menu For : 1
00:00:00.000 : Chapter 1
00:03:05.000 : Chapter 2
00:11:31.000 : Chapter 3
00:39:48.000 : Chapter 4
00:46:37.000 : Chapter 5


Трекер:  [ 21-Фев-2017 07:00 ]

  

Скачать .torrent

Размер .torrent файла 13 KB


Размер: 1.25 GB
Хэш (hash) релиза: 0f8330872b471ad3072e1422228fcfac22d30e52

Торренты, похожие на Thriller Триллер скачать торрент

Форум Название Автор Размер S L Добавлен
Эротика, документальное и обучающее ·· [ART] Hooker's Revenge/They Call Her One Eye/Thriller: A Cruel Picture/Thriller-en grym film / Месть проститутки / Ее звали одноглазой / Триллер: жестокое кино (Bo Arne Vibenius, BAV Film) [1974 г., Арт-Хаус/Action/Thriller, DVDRip] spider91 910418288868 MB 0 0 1364136898

17:54

24-Мар-13

Эротика, документальное и обучающее ·· Thriller - en grym film / Триллер: Жестокий фильм (Bo Arne Vibenius, BAV Film, United Producers) [1973 г., Action | Thriller, DVDRip] Galfimbul 14699293811.37 GB 0 0 1439014195

09:09

8-Авг-15

Лесбо фильмы ·· Project Pandora: A Psychosexual Lesbian Thriller / Проект Пандора: Психологический Лесбийский Триллер (Bree Mills, Stills By Alan, Girlsway) [2016 г., Feature, Lesbian, All Girl, WEBRip ] Galfimbul 29334447112.73 GB 0 0 1458121397

12:43

16-Мар-16

Эротика, документальное и обучающее ·· Thriller: A Cruel Picture / Триллер: жестокое кино (Bo Arne Vibenius, BAV Film) [1974 г., Erotic Movies, Action, Triller, DVDRip] [rus] Galfimbul 21686980202.02 GB 1 1 1451639394

12:09

1-Янв-16

Зарубежные порнофильмы ·· Driller - A Sexual Thriller XXX / Бурильщик-Сексуальный Триллер XXX / Сверлильщик: Порнопародия (Джус Джеймс / Joyce James, VCA) [1984 г., Feature, Parody, Interracial, Classic, DVD9] Galfimbul 58890096645.48 GB 0 0 1423572673

15:51

10-Фев-15

Порно фильмы с сюжетом ·· Enigma - Sex Thriller / Загадка - Секс Триллер (Jane Darling, Sophia Gently, Angelica Wild, Jessica Di Maggio, Sara Nice [Hero Bosch, H2 Video]) [2004 г., Feature, DVDRip] (Split Scenes) Galfimbul 42381185543.95 GB 1 1 1420098658

10:50

1-Янв-15

Гонзо-фильмы ·· Sex Thriller / Секс-триллер (Nacho Vidal, Evil Angel) [2003 г., Gonzo, DVDRip] Galfimbul 14796585791.38 GB 0 0 1399114884

14:01

3-Май-14

Порно фильмы с сюжетом ·· Driller - A Sexual Thriller XXX / Бурильщик-Сексуальный Триллер XXX (Joyce James, VCA) [1984 г., Feature, Parody, Interracial, Classic, DVDRip] spider91 670747712640 MB 1 2 1364914614

17:56

2-Апр-13

Порно фильмы без сюжета ·· Anal Thriller / Анальный Триллер (Michael Stefano, Testosteron Film) [2004 г., Straight, Blowjobs, Deep Throat, Facials, Swallow, Anal, DP, DPP, DAP, DVDRip] Galfimbul 14728233681.37 GB 2 0 1364555661

14:14

29-Мар-13

Порно фильмы без сюжета ·· Анальный Триллер / Anal Thriller (Michael Stefano) [2004 г., All Sex; Anal; Extreme;DAP, DVDRip] Galfimbul 734398464700 MB 0 0 1364555659

14:14

29-Мар-13

Порно фильмы с сюжетом ·· Breaking Point aka Pornographic Thriller / Порно-триллер (Bo Arne Vibenius) [1975 г., VHSRip] Galfimbul 430316662410 MB 0 0 1364191879

09:11

25-Мар-13

Порно фильмы с сюжетом ·· Driller - A Sexual Thriller XXX / Бурильщик-Сексуальный Триллер XXX (Joyce James, VCA) [1984 г., Feature, Parody, Interracial, Classic, DVD9] Galfimbul 57647759365.37 GB 0 0 1361773862

09:31

25-Фев-13

Зарубежные порнофильмы ·· Private Gold 69: Sex Thriller / Секс-триллер ( Antonio Adamo / Private )( Alex Divine, Brooke, Shy Love, Gia Jordan, Katie Morgan, Tyla Wynn )[ 2005, Feature, Anal, DP, Facial DVDRip ](С русским переводом!)[rus] _N_ 729629230696 MB 1 1 1350409080

20:38

16-Окт-12

Эротика, документальное и обучающее ·· Private - Gold 69 - Sex Thriller / Секс-триллер (Antonio Adamo, Private) [2005 г., Erotica, TVRip] [rus] Galfimbul 839382486800 MB 1 2 1351946460

15:41

3-Ноя-12

Порно фильмы с сюжетом ·· Enigma - Sex Thriller / Загадка - секс триллер (Francesco Fanelli) [Anal, Oral, Classic, DVDRip] Galfimbul 13626286081.27 GB 0 0 1304710017

22:26

6-Май-11

Еще никто не оставлял запись к записи скачать торрент Thriller Триллер . Будь первым!

!Обратная связь