Скачать порно через торрент The Barbarians aka Os Barbaros Варвары UnionPeer.org бесплатно онлайн HD качество

Скачать новое порно 2015, 2014 новинки через торрент UnionPeer.org

Порно торрент бесплатно ЮнионПир.орг

Если у вас наблюдаются проблемы со скриншотами, переходом по ссылками, скачиванием торрентов - проблемы в блокировщике рекламы AdBlock. #хорошегоДня!


Статистика раздачи
Размер:  1.13 GB   |    Зарегистрирован:  8 месяцев   |    .torrent скачан:  77 раз   |   
Раздают:  1  
   
Загрузка...
 
Автор Сообщение

Galfimbul

avatar Galfimbul


The Barbarians aka Os Barbaros / Варвары

Год производства: 2006 г.
Страна: Brazil
Жанр: all sex
Продолжительность: 01:35:24

Режиссер: Cristian Ferrero
Студия: Ícaro Studios

В ролях: Alexandre Senna
André Santos
Antony Guimenez
Denis (Cult)
Marcello Caetano
Matheus Axell
Miguel Arcanjo
Mike (br)
Victor Manzini

Описание: Barbaros são geralmente caracterizados por homens fortes, guerreiros e rudes. Porém, em "OS BÁRBAROS" podemos uma faceta destes homens. Após feroz batalha, vitoriosos e derrotados têm muito o que conversar. Veja nessa produção, que todos, vitoriosos, derrotados, heróis e fugitivos podem se entender muito bem!

Format : AVI
Format/Info : Audio Video Interleave
File size : 1.13 GiB
Duration : 1h 35mn
Overall bit rate : 1 689 Kbps
Writing application : VirtualDubMod 1.5.10.2 (build 2540/release)
Writing library : VirtualDubMod build 2540/release

Video
ID : 0
Format : MPEG-4 Visual
Format profile : Advanced Simple@L5
Format settings, BVOP : 2
Format settings, QPel : Yes
Format settings, GMC : 3 warppoints
Format settings, Matrix : Default (H.263)
Muxing mode : Packed bitstream
Codec ID : XVID
Codec ID/Hint : XviD
Duration : 1h 35mn
Bit rate : 1 551 Kbps
Width : 720 pixels
Height : 448 pixels
Display aspect ratio : 1.607
Frame rate : 25.000 fps
Color space : YUV
Chroma subsampling : 4:2:0
Bit depth : 8 bits
Scan type : Progressive
Compression mode : Lossy
Bits/(Pixel*Frame) : 0.192
Stream size : 1.03 GiB (92%)
Writing library : XviD 1.2.0.dev47 (UTC 2006-11-01)

Audio
ID : 1
Format : MPEG Audio
Format version : Version 1
Format profile : Layer 3
Codec ID : 55
Codec ID/Hint : MP3
Duration : 1h 35mn
Bit rate mode : Constant
Bit rate : 128 Kbps
Channel(s) : 2 channels
Sampling rate : 44.1 KHz
Compression mode : Lossy
Stream size : 87.4 MiB (8%)
Alignment : Split accross interleaves
Interleave, duration : 40 ms (1.00 video frame)
Interleave, preload duration : 500 ms
Writing library : LAME3.97
Encoding settings : -m s -V 4 -q 2 -lowpass 17 -b 128

Доп. информация: http://www.gayeroticvideoindex.com/V/7/28207.html

Качество видео: DVDRip
Формат видео: AVI
Видео: Frame rate : 25.000 fps
Аудио: Bit rate : 128 Kbps


Трекер:  [ 20-Фев-2017 13:30 ]

  

Скачать .torrent

Размер .torrent файла 11 KB


Размер: 1.13 GB
Хэш (hash) релиза: b85bd4c12d541f5635cf79a071bf1fd5a4f9e065

Еще никто не оставлял запись к записи скачать торрент The Barbarians aka Os Barbaros Варвары . Будь первым!

!Обратная связь