Скачать порно через торрент Gypsies цыгане UnionPeer.org бесплатно онлайн HD качество

Скачать новое порно 2015, 2014 новинки через торрент UnionPeer.org

Порно торрент бесплатно ЮнионПир.орг

Если у вас наблюдаются проблемы со скриншотами, переходом по ссылками, скачиванием торрентов - проблемы в блокировщике рекламы AdBlock. #хорошегоДня!


Статистика раздачи
Размер:  1.19 GB   |    Зарегистрирован:  6 месяцев   |    .torrent скачан:  43 раза   |   
Раздают:  1  
   
Загрузка...
 
Автор Сообщение

Galfimbul

avatar Galfimbul


Gypsies / цыгане

Год производства: 2006 г.
Страна: Brazil
Жанр: all sex
Продолжительность: 01:43:52

Режиссер: Cristian Ferrero
Студия: South American Pictures

В ролях: Alessandro
Alex Bad Boy
Alex Leite
Caio (br1)
Denis Boy
Henrique Radvan
Léo Aranha
Patrick Valente
Tiago de Castro

Описание: Eles se aventuram pelo mndo atrás de prazer, e hoje chegaram para te conquistar! Venha ver afundo essa fantástica cultura e seus homens misteriosos e sedutores.
------
They venture for the world of pleasure, and today they had arrived to conquer you! four men fuck and suck each other in the woods for your viewing pleasure.

General
Complete name : F:\next door\Gypsies [Arena].avi
Format : AVI
Format/Info : Audio Video Interleave
File size : 1.19 GiB
Duration : 1h 43mn
Overall bit rate : 1 640 Kbps

Video
ID : 0
Format : MPEG-4 Visual
Format profile : Simple@L3
Format settings, BVOP : Yes
Format settings, QPel : No
Format settings, GMC : No warppoints
Format settings, Matrix : Default (H.263)
Codec ID : XVID
Codec ID/Hint : XviD
Duration : 1h 43mn
Bit rate : 1 500 Kbps
Width : 640 pixels
Height : 480 pixels
Display aspect ratio : 4:3
Frame rate : 29.970 fps
Color space : YUV
Chroma subsampling : 4:2:0
Bit depth : 8 bits
Scan type : Progressive
Compression mode : Lossy
Bits/(Pixel*Frame) : 0.163
Stream size : 1.09 GiB (91%)

Audio
ID : 1
Format : MPEG Audio
Format version : Version 1
Format profile : Layer 3
Mode : Joint stereo
Mode extension : MS Stereo
Codec ID : 55
Codec ID/Hint : MP3
Duration : 1h 43mn
Bit rate mode : Constant
Bit rate : 128 Kbps
Channel(s) : 2 channels
Sampling rate : 44.1 KHz
Compression mode : Lossy
Stream size : 94.9 MiB (8%)
Alignment : Aligned on interleaves
Interleave, duration : 26 ms (0.78 video frame)
Interleave, preload duration : 52 ms
Writing library : LAME3.97

Доп. информация: http://www.gayeroticvideoindex.com/V/7/29687.html

Качество видео: DVDRip
Формат видео: AVI
Видео: Frame rate : 29.970 fps
Аудио: Bit rate : 128 Kbps


Трекер:  [ 19-Фев-2017 14:00 ]

  

Скачать .torrent

Размер .torrent файла 48 KB


Размер: 1.19 GB
Хэш (hash) релиза: 6a36bac7b45410d1072ea49eff25e749d6281687

Торренты, похожие на Gypsies цыгане скачать торрент

Форум Название Автор Размер S L Добавлен
Этнические порно фильмы ·· [WDLC] A Gypsy / Цыгане (N/A, Latin X) [2010 г., All sex,oral,anal,lesbo,latina, DVDRip] Galfimbul 16404100661.53 GB 0 0 1370094656

16:50

1-Июн-13

Еще никто не оставлял запись к записи скачать торрент Gypsies цыгане . Будь первым!

!Обратная связь