Скачать порно через торрент Big, Bigger, Best Большой, Большущий, Лучший UnionPeer.org бесплатно онлайн HD качество

Скачать новое порно 2015, 2014 новинки через торрент UnionPeer.org

Порно торрент бесплатно ЮнионПир.орг

Если у вас наблюдаются проблемы со скриншотами, переходом по ссылками, скачиванием торрентов - проблемы в блокировщике рекламы AdBlock. #хорошегоДня!


Статистика раздачи
Размер:  1.09 GB   |    Зарегистрирован:  6 месяцев   |    .torrent скачан:  51 раз   |   
Раздают:  1  
   
Загрузка...
 
Автор Сообщение

Galfimbul

avatar Galfimbul



Big, Bigger, Best
Большой, Большущий, Лучший

Год производства:
1994 г.
Страна:
US
Жанр:
Oral, Anal Sex, Bareback, Compilation
Продолжительность:
01:10:18
Студия:
Le SalonРежиссер:
Steve StevensВ ролях:
Chad Johnson, Cory Monroe, Jack Lofton, Jim Bentley, John Smith, Lou Cass, Pierce Daniels, Scott O''Hara
Описание:
Some of the biggest cocks of the pre-AIDS era size each other up - and then some. No little boys here!
Качество видео:
VHSRip
Формат видео:
MP4
Видео:
MPEG-4, 720x544, 29.970 fps, 2 076 kbps
Аудио:
AAC, 44.1 kHz, Lossy, 161 kbps, Stereo
Format : MPEG-4
Format profile : Base Media / Version 2
Codec ID : mp42 (mp42)
File size : 1.09 GiB
Duration : 1 h 10 min
Overall bit rate mode : Variable
Overall bit rate : 2 213 kb/s
Codirector : codirector
Production studio : studio
ContentType : Unknown Type
Encoded date : UTC 2017-01-21 03:17:09
Tagged date : UTC 2017-01-21 03:17:22

Video
ID : 1
Format : AVC
Format/Info : Advanced Video Codec
Format profile : Baseline@L3
Format settings, CABAC : No
Format settings, ReFrames : 1 frame
Muxing mode : Container profile=Baseline@4.1
Codec ID : avc1
Codec ID/Info : Advanced Video Coding
Duration : 1 h 10 min
Bit rate : 2 076 kb/s
Width : 720 pixels
Height : 544 pixels
Display aspect ratio : 4:3
Frame rate mode : Constant
Frame rate : 29.970 (30000/1001) FPS
Original frame rate : 29.000 FPS
Color space : YUV
Chroma subsampling : 4:2:0
Bit depth : 8 bits
Scan type : Progressive
Bits/(Pixel*Frame) : 0.177
Stream size : 1.02 GiB (94%)
Language : English
Menus : 3

Audio
ID : 2
Format : AAC
Format/Info : Advanced Audio Codec
Format profile : LC
Codec ID : 40
Duration : 1 h 10 min
Bit rate mode : Variable
Bit rate : 128 kb/s
Maximum bit rate : 161 kb/s
Channel(s) : 2 channels
Channel positions : Front: L R
Sampling rate : 44.1 kHz
Frame rate : 43.066 FPS (1024 spf)
Compression mode : Lossy
Stream size : 64.2 MiB (6%)
Title : Stereo
Language : English
Default : Yes
Alternate group : 1

Menu
ID : 3
Codec ID : text
Duration : 1 h 10 min
Encoded date : UTC 2017-01-21 03:17:22
Tagged date : UTC 2017-01-21 03:17:22
Menu For : 1
00:00:00.000 : Chapter 1
00:00:03.000 : Chapter 2
00:05:00.000 : Chapter 3
00:09:21.000 : Chapter 4
00:14:10.000 : Chapter 5
00:19:26.000 : Chapter 6
00:24:11.000 : Chapter 7
00:30:09.000 : Chapter 8
00:36:03.000 : Chapter 9
00:40:44.000 : Chapter 10
00:47:25.000 : Chapter 11
00:52:17.000 : Chapter 12
00:57:09.000 : Chapter 13
01:01:07.000 : Chapter 14
01:06:02.000 : Chapter 15
01:10:15.000 : Chapter 16
Bit rate mode : VBR

[/spoier]


Трекер:  [ 19-Фев-2017 12:00 ]

  

Скачать .torrent

Размер .torrent файла 11 KB


Размер: 1.09 GB
Хэш (hash) релиза: d9f8189e2e22309901616bb6e3a584748566c0b2

Еще никто не оставлял запись к записи скачать торрент Big, Bigger, Best Большой, Большущий, Лучший . Будь первым!

!Обратная связь