Скачать порно через торрент Sunsex Blvd. Сансекс бульвар UnionPeer.org бесплатно онлайн HD качество

Скачать новое порно 2015, 2014 новинки через торрент UnionPeer.org

Порно торрент бесплатно ЮнионПир.орг

Если у вас наблюдаются проблемы со скриншотами, переходом по ссылками, скачиванием торрентов - проблемы в блокировщике рекламы AdBlock. #хорошегоДня!


Статистика раздачи
Размер:  1.16 GB   |    Зарегистрирован:  6 месяцев   |    .torrent скачан:  61 раз   |   
Раздают:  1  
   
Загрузка...
 
Автор Сообщение

Galfimbul

avatar Galfimbul



Sunsex Blvd.
Сансекс бульвар

Год производства:
1993 г.
Страна:
US
Жанр:
Oral,Anal Sex,Bareback
Продолжительность:
01:14:49
Студия:
Catalina Video
Режиссер:
Brad Austin
В ролях:
Brandon Wells, Chuck McCoy,Dave Logan,Mark West,Max Stone,Michael Ashley,Scott Randsome
Описание:
Hollywood California circa 1950''s Sunsex Blvd...the place where all the action is. Hardcore man-sex from Hollywood to Beverly Hills. Looking for that perfect star can be tough. Finding a good writer can be murder. Getting the best sex is guaranteed. Catalina takes you back, and gets you off on Sunset Blvd.
Качество видео:
VHSRip
Формат видео:
MPEG-4
Видео:
mp42 , 720x544, 29.970 fps,2 079 kb/s
Аудио:
AAC, 44.1 kHz, Lossy, 234 kb/s
Format : MPEG-4
Format profile : Base Media / Version 2
Codec ID : mp42 (mp42)
File size : 1.16 GiB
Duration : 1 h 14 min
Overall bit rate mode : Variable
Overall bit rate : 2 216 kb/s
Codirector : codirector
Production studio : studio
ContentType : Unknown Type
Encoded date : UTC 2016-11-26 19:46:13
Tagged date : UTC 2016-11-26 19:46:36

Video
ID : 1
Format : AVC
Format/Info : Advanced Video Codec
Format profile : Baseline@L3
Format settings, CABAC : No
Format settings, ReFrames : 1 frame
Muxing mode : Container profile=Baseline@4.1
Codec ID : avc1
Codec ID/Info : Advanced Video Coding
Duration : 1 h 14 min
Bit rate : 2 079 kb/s
Width : 720 pixels
Height : 544 pixels
Display aspect ratio : 4:3
Frame rate mode : Constant
Frame rate : 29.970 (30000/1001) FPS
Original frame rate : 29.000 FPS
Color space : YUV
Chroma subsampling : 4:2:0
Bit depth : 8 bits
Scan type : Progressive
Bits/(Pixel*Frame) : 0.177
Stream size : 1.09 GiB (94%)
Language : English
Menus : 3

Audio
ID : 2
Format : AAC
Format/Info : Advanced Audio Codec
Format profile : LC
Codec ID : 40
Duration : 1 h 14 min
Bit rate mode : Variable
Bit rate : 128 kb/s
Maximum bit rate : 234 kb/s
Channel(s) : 2 channels
Channel positions : Front: L R
Sampling rate : 44.1 kHz
Frame rate : 43.066 FPS (1024 spf)
Compression mode : Lossy
Stream size : 68.5 MiB (6%)
Title : Stereo
Language : English
Default : Yes
Alternate group : 1

Menu
ID : 3
Codec ID : text
Duration : 1 h 9 min
Encoded date : UTC 2016-11-26 19:46:36
Tagged date : UTC 2016-11-26 19:46:36
Menu For : 1
00:00:00.000 : Chapter 1
00:01:40.000 : Chapter 2
00:12:44.000 : Chapter 3
00:17:31.000 : Chapter 4
00:26:16.000 : Chapter 5
00:28:25.000 : Chapter 6
00:37:42.000 : Chapter 7
00:39:22.000 : Chapter 8
00:56:18.000 : Chapter 9
00:58:04.000 : Chapter 10
01:09:05.000 : Chapter 11
Bit rate mode : VBR


Трекер:  [ 18-Фев-2017 00:00 ]

  

Скачать .torrent

Размер .torrent файла 12 KB


Размер: 1.16 GB
Хэш (hash) релиза: 43a775c0d3414666957f6876526cc7032d9c341c

Еще никто не оставлял запись к записи скачать торрент Sunsex Blvd. Сансекс бульвар . Будь первым!

!Обратная связь